<?xml version="1.0" standalone="no"?>
<!DOCTYPE svg PUBLIC "-//W3C//DTD SVG 1.1//EN" "http://www.w3.org/Graphics/SVG/1.1/DTD/svg11.dtd" >
<svg xmlns="http://www.w3.org/2000/svg">
<metadata>Generated by IcoMoon</metadata>
<defs>
<font id="icomoon" horiz-adv-x="1024">
<font-face units-per-em="1024" ascent="960" descent="-64" />
<missing-glyph horiz-adv-x="1024" />
<glyph unicode="&#x20;" horiz-adv-x="512" d="" />
<glyph unicode="&#xe900;" glyph-name="angle-down" horiz-adv-x="658" d="M614.286 530.286c0-4.571-2.286-9.714-5.714-13.143l-266.286-266.286c-3.429-3.429-8.571-5.714-13.143-5.714s-9.714 2.286-13.143 5.714l-266.286 266.286c-3.429 3.429-5.714 8.571-5.714 13.143s2.286 9.714 5.714 13.143l28.571 28.571c3.429 3.429 8 5.714 13.143 5.714 4.571 0 9.714-2.286 13.143-5.714l224.571-224.571 224.571 224.571c3.429 3.429 8.571 5.714 13.143 5.714s9.714-2.286 13.143-5.714l28.571-28.571c3.429-3.429 5.714-8.571 5.714-13.143z" />
<glyph unicode="&#xe901;" glyph-name="angle-left" horiz-adv-x="384" d="M358.286 640c0-4.571-2.286-9.714-5.714-13.143l-224.571-224.571 224.571-224.571c3.429-3.429 5.714-8.571 5.714-13.143s-2.286-9.714-5.714-13.143l-28.571-28.571c-3.429-3.429-8.571-5.714-13.143-5.714s-9.714 2.286-13.143 5.714l-266.286 266.286c-3.429 3.429-5.714 8.571-5.714 13.143s2.286 9.714 5.714 13.143l266.286 266.286c3.429 3.429 8.571 5.714 13.143 5.714s9.714-2.286 13.143-5.714l28.571-28.571c3.429-3.429 5.714-8 5.714-13.143z" />
<glyph unicode="&#xe902;" glyph-name="bin2" d="M128 640v-640c0-35.2 28.8-64 64-64h576c35.2 0 64 28.8 64 64v640h-704zM320 64h-64v448h64v-448zM448 64h-64v448h64v-448zM576 64h-64v448h64v-448zM704 64h-64v448h64v-448zM848 832h-208v80c0 26.4-21.6 48-48 48h-224c-26.4 0-48-21.6-48-48v-80h-208c-26.4 0-48-21.6-48-48v-80h832v80c0 26.4-21.6 48-48 48zM576 832h-192v63.198h192v-63.198z" />
<glyph unicode="&#xe903;" glyph-name="angle-up" horiz-adv-x="658" d="M614.286 274.286c0-4.571-2.286-9.714-5.714-13.143l-28.571-28.571c-3.429-3.429-8-5.714-13.143-5.714-4.571 0-9.714 2.286-13.143 5.714l-224.571 224.571-224.571-224.571c-3.429-3.429-8.571-5.714-13.143-5.714s-9.714 2.286-13.143 5.714l-28.571 28.571c-3.429 3.429-5.714 8.571-5.714 13.143s2.286 9.714 5.714 13.143l266.286 266.286c3.429 3.429 8.571 5.714 13.143 5.714s9.714-2.286 13.143-5.714l266.286-266.286c3.429-3.429 5.714-8.571 5.714-13.143z" />
<glyph unicode="&#xe904;" glyph-name="activity, history, time" d="M512 836.267c-200.4 0-366.954-144.072-402.4-334.2-0.031-0.165-0.069-0.335-0.1-0.5-2.974-16.061-4.76-32.441-5.8-49.1-0.017-0.271-0.084-0.529-0.1-0.8 0.019-0.004 0.080 0.004 0.1 0-0.503-8.31-1.3-16.564-1.3-25 0-226.202 183.398-409.6 409.6-409.6 208.165 0 379.707 155.44 405.8 356.5 0.004 0.033-0.004 0.067 0 0.1 1.94 14.978 3.124 30.16 3.4 45.6 0.044 2.487 0.4 4.903 0.4 7.4 0 226.202-183.398 409.6-409.6 409.6zM512 785.067c185.461 0 337.902-140.924 356.4-321.5-35.181 21.812-84.232 39.9-151.6 39.9-85.35 0-140.891-41.606-194.6-81.9-49.152-36.864-95.55-71.7-163.8-71.7-86.067 0-135.862 54.67-175.9 98.6-9.001 9.901-17.11 17.483-25.4 25.3 23.131 175.603 172.981 311.3 354.9 311.3zM716.8 452.267c77.828 0 125.173-28.221 152.2-52.8-13.96-185.173-168.254-331.2-357-331.2-190.097 0-345.175 148.14-357.2 335.2 41.826-45.372 102.577-104.8 203.6-104.8 85.35 0 140.891 41.606 194.6 81.9 49.152 36.915 95.55 71.7 163.8 71.7z" />
<glyph unicode="&#xe905;" glyph-name="add, plus" d="M512 938.667c-35.392 0-64-28.608-64-64v-384h-384c-35.392 0-64-28.608-64-64s28.608-64 64-64h384v-384c0-35.392 28.608-64 64-64s64 28.608 64 64v384h384c35.392 0 64 28.608 64 64s-28.608 64-64 64h-384v384c0 35.392-28.608 64-64 64z" />
<glyph unicode="&#xe906;" glyph-name="check-circle" d="M512 836.267c-226.202 0-409.6-183.398-409.6-409.6s183.398-409.6 409.6-409.6c226.202 0 409.6 183.398 409.6 409.6s-183.398 409.6-409.6 409.6zM512 785.067c197.632 0 358.4-160.819 358.4-358.4s-160.768-358.4-358.4-358.4c-197.632 0-358.4 160.819-358.4 358.4s160.768 358.4 358.4 358.4zM691.9 605.667c-12.893-0.002-25.782-4.882-35.5-14.6l-222.2-221.9-67.7 67.5c-19.19 19.294-51.085 19.215-70.3 0-19.15-19.15-19.15-51.050 0-70.2 0.198-0.2 26.198-26.681 52-53 12.95-13.209 25.761-26.372 35.2-36 4.719-4.814 8.607-8.755 11.2-11.4 1.296-1.322 2.293-2.281 2.9-2.9 0.279-0.282 0.488-0.486 0.6-0.6 0.001-0.001 7.591 7.429 14.6 14.3l-14.5-14.4 0.2-0.2v-0.1c19.43-19.327 51.57-19.327 71 0v0.1l258.1 257.6c19.546 19.447 19.521 51.885-0.1 71.3-9.731 9.679-22.607 14.502-35.5 14.5z" />
<glyph unicode="&#xe907;" glyph-name="check-circle-filled" d="M512-85.333c-282.778 0-512 229.222-512 512s229.222 512 512 512 512-229.222 512-512-229.222-512-512-512zM855.808 668.075c-19.2 19.2-50.278 19.2-69.478 0l-376.73-376.73-171.878 171.93c-19.2 19.2-50.278 19.2-69.478 0s-19.2-50.278 0-69.478c0 0 201.523-205.261 204.8-208.486 9.984-10.138 23.347-14.643 36.557-14.080 13.21-0.563 26.573 3.942 36.608 14.029 3.277 3.226 409.6 413.286 409.6 413.286 19.2 19.2 19.2 50.33 0 69.53z" />
<glyph unicode="&#xe908;" glyph-name="close" d="M601.024 426.667l276.736-276.736c24.512-24.576 24.512-64.384 0-89.024-24.64-24.576-64.384-24.576-89.024 0l-276.736 276.736-276.736-276.736c-24.512-24.576-64.384-24.576-89.024 0-24.512 24.64-24.512 64.448 0 89.024l276.736 276.736-276.736 276.736c-24.512 24.576-24.512 64.384 0 89.024 24.64 24.576 64.512 24.576 89.024 0l276.736-276.736 276.736 276.736c24.64 24.576 64.384 24.576 89.024 0 24.512-24.64 24.512-64.448 0-89.024l-276.736-276.736z" />
<glyph unicode="&#xe909;" glyph-name="type-References" d="M409.6 503.467h-153.6v-51.2h153.6v51.2zM409.6 605.867h-153.6v-51.2h153.6v51.2zM256 247.467h409.6v51.2h-409.6v-51.2zM409.6 708.267h-153.6v-51.2h153.6v51.2zM870.4 759.467h-51.2v51.2c0 28.262-22.938 51.2-51.2 51.2h-614.4c-28.262 0-51.2-22.938-51.2-51.2v-665.6c0-28.262 22.938-51.2 51.2-51.2h51.2v-51.2c0-28.262 22.938-51.2 51.2-51.2h614.4c28.262 0 51.2 22.938 51.2 51.2v665.6c0 28.262-22.938 51.2-51.2 51.2zM179.2 145.067c-14.157 0-25.6 11.443-25.6 25.6v614.4c0 14.131 11.443 25.6 25.6 25.6h563.2c14.157 0 25.6-11.469 25.6-25.6v-614.4c0-14.157-11.443-25.6-25.6-25.6h-563.2zM870.4 68.267c0-14.157-11.443-25.6-25.6-25.6h-563.2c-14.157 0-25.6 11.443-25.6 25.6v25.6h512c28.262 0 51.2 22.938 51.2 51.2v563.2h25.6c14.157 0 25.6-11.469 25.6-25.6v-614.4zM614.4 708.267h-102.4c-28.262 0-51.2-22.938-51.2-51.2v-153.6c0-28.262 22.938-51.2 51.2-51.2h102.4c28.262 0 51.2 22.938 51.2 51.2v153.6c0 28.262-22.938 51.2-51.2 51.2zM614.4 503.467h-102.4v153.6h102.4v-153.6zM256 349.867h409.6v51.2h-409.6v-51.2z" />
<glyph unicode="&#xe90a;" glyph-name="control-Checkbox" d="M793.6 93.867c0-14.157-11.443-25.6-25.6-25.6h-665.6c-14.131 0-25.6 11.443-25.6 25.6v665.6c0 14.157 11.469 25.6 25.6 25.6h665.6c14.157 0 25.6-11.443 25.6-25.6v-102.4h51.2v128c0 28.262-22.938 51.2-51.2 51.2h-716.8c-28.262 0-51.2-22.938-51.2-51.2v-716.8c0-28.262 22.938-51.2 51.2-51.2h716.8c28.262 0 51.2 22.938 51.2 51.2v281.6h-51.2v-256zM991.078 700.92c-9.958 9.958-26.035 9.958-35.968 0l-391.91-391.91-238.31 238.31c-9.958 9.958-26.061 9.958-35.942 0-9.958-9.907-9.958-26.010 0-35.942l254.874-254.874c0.461-0.538 0.614-1.203 1.126-1.69 5.043-5.018 11.674-7.475 18.278-7.373 6.605-0.102 13.235 2.355 18.278 7.373 0.512 0.512 0.666 1.178 1.126 1.69l408.448 408.474c9.933 9.933 9.933 26.035 0 35.942z" />
<glyph unicode="&#xe90b;" glyph-name="control-Dropdown" d="M51.2 938.667c-28.262 0-51.2-22.938-51.2-51.2v-281.6c0-28.262 22.938-51.2 51.2-51.2h921.6c28.262 0 51.2 22.938 51.2 51.2v281.6c0 28.262-22.938 51.2-51.2 51.2h-921.6zM76.8 887.467h512v-281.6h-512c-14.157 0-25.6 11.443-25.6 25.6v230.4c0 14.157 11.443 25.6 25.6 25.6zM640 887.467h307.2c14.157 0 25.6-11.443 25.6-25.6v-230.4c0-14.157-11.443-25.6-25.6-25.6h-307.2v281.6zM716.8 785.067c-0.41-0.358 89.139-102.938 89.6-102.4 0.512 0 89.6 95.36 89.6 102.4 0-0.384-172.16 0-179.2 0zM128 503.467c-42.394 0-76.8-34.406-76.8-76.8s34.406-76.8 76.8-76.8c42.394 0 76.8 34.406 76.8 76.8s-34.406 76.8-76.8 76.8zM128 452.267c14.157 0 25.6-11.443 25.6-25.6s-11.443-25.6-25.6-25.6c-14.157 0-25.6 11.443-25.6 25.6s11.443 25.6 25.6 25.6zM307.2 452.267c-14.157 0-25.6-11.443-25.6-25.6s11.443-25.6 25.6-25.6h640c14.157 0 25.6 11.443 25.6 25.6s-11.443 25.6-25.6 25.6h-640zM128 298.667c-42.394 0-76.8-34.381-76.8-76.8s34.406-76.8 76.8-76.8c42.394 0 76.8 34.381 76.8 76.8s-34.406 76.8-76.8 76.8zM128 247.467c14.157 0 25.6-11.443 25.6-25.6s-11.443-25.6-25.6-25.6c-14.157 0-25.6 11.443-25.6 25.6s11.443 25.6 25.6 25.6zM307.2 247.467c-14.157 0-25.6-11.443-25.6-25.6s11.443-25.6 25.6-25.6h640c14.157 0 25.6 11.443 25.6 25.6s-11.443 25.6-25.6 25.6h-640zM128 93.867c-42.394 0-76.8-34.381-76.8-76.8s34.406-76.8 76.8-76.8c42.394 0 76.8 34.381 76.8 76.8s-34.406 76.8-76.8 76.8zM128 42.667c14.157 0 25.6-11.443 25.6-25.6s-11.443-25.6-25.6-25.6c-14.157 0-25.6 11.443-25.6 25.6s11.443 25.6 25.6 25.6zM307.2 42.667c-14.157 0-25.6-11.443-25.6-25.6s11.443-25.6 25.6-25.6h640c14.157 0 25.6 11.443 25.6 25.6s-11.443 25.6-25.6 25.6h-640z" />
<glyph unicode="&#xe90c;" glyph-name="control-Input" d="M512 938.667c-14.157 0-25.6-11.443-25.6-25.6s11.443-25.6 25.6-25.6h128v-870.4h-128c-14.157 0-25.6-11.443-25.6-25.6s11.443-25.6 25.6-25.6h307.2c14.157 0 25.6 11.443 25.6 25.6s-11.443 25.6-25.6 25.6h-128v870.4h128c14.157 0 25.6 11.443 25.6 25.6s-11.443 25.6-25.6 25.6h-307.2zM51.2 733.867c-28.262 0-51.2-22.938-51.2-51.2v-460.8c0-28.262 22.938-51.2 51.2-51.2h537.6v51.2h-512c-14.131 0-25.6 11.443-25.6 25.6v409.6c0 14.157 11.469 25.6 25.6 25.6h512v51.2h-537.6zM742.4 733.867v-51.2h204.8c14.157 0 25.6-11.443 25.6-25.6v-409.6c0-14.157-11.443-25.6-25.6-25.6h-204.8v-51.2h230.4c28.262 0 51.2 22.938 51.2 51.2v460.8c0 28.262-22.938 51.2-51.2 51.2h-230.4zM285.9 631.667c-0.589-0.051-1.161-0.048-1.75-0.15-8.243-0.051-16.396-4.474-20.85-13.050l-132.55-306.25c-6.656-12.749-2.866-28.981 8.5-36.2 11.341-7.219 25.97-2.749 32.6 10l27.65 63.85h170.5c0.512 0 0.914 0.224 1.4 0.25l27.45-64.050c6.63-12.749 21.136-17.269 32.4-10.050s15.005 23.451 8.4 36.2l-131.3 306.25c-4.454 8.576-12.432 12.973-20.65 13.050-0.614 0.102-1.211 0.099-1.8 0.15zM285.9 549.517l63.65-148.45h-127.9l64.25 148.45z" />
<glyph unicode="&#xe90d;" glyph-name="control-Radio" d="M153.6 221.867c-84.787 0-153.6-68.813-153.6-153.6s68.813-153.6 153.6-153.6c84.787 0 153.6 68.813 153.6 153.6s-68.813 153.6-153.6 153.6zM153.6-34.133c-56.55 0-102.4 45.85-102.4 102.4s45.85 102.4 102.4 102.4c56.55 0 102.4-45.85 102.4-102.4s-45.85-102.4-102.4-102.4zM384 759.467h614.4c14.157 0 25.6 11.443 25.6 25.6s-11.443 25.6-25.6 25.6h-614.4c-14.131 0-25.6-11.443-25.6-25.6s11.469-25.6 25.6-25.6zM998.4 452.267h-614.4c-14.131 0-25.6-11.443-25.6-25.6s11.469-25.6 25.6-25.6h614.4c14.157 0 25.6 11.443 25.6 25.6s-11.443 25.6-25.6 25.6zM153.6 938.667c-84.787 0-153.6-68.787-153.6-153.6s68.813-153.6 153.6-153.6c84.787 0 153.6 68.787 153.6 153.6s-68.813 153.6-153.6 153.6zM153.6 682.667c-56.55 0-102.4 45.85-102.4 102.4s45.85 102.4 102.4 102.4c56.55 0 102.4-45.85 102.4-102.4s-45.85-102.4-102.4-102.4zM153.6 580.267c-84.787 0-153.6-68.787-153.6-153.6 0-84.787 68.813-153.6 153.6-153.6s153.6 68.813 153.6 153.6c0 84.813-68.813 153.6-153.6 153.6zM153.6 324.267c-56.55 0-102.4 45.85-102.4 102.4s45.85 102.4 102.4 102.4c56.55 0 102.4-45.85 102.4-102.4s-45.85-102.4-102.4-102.4zM153.6 836.267c-28.262 0-51.2-22.938-51.2-51.2s22.938-51.2 51.2-51.2c28.262 0 51.2 22.938 51.2 51.2s-22.938 51.2-51.2 51.2zM998.4 93.867h-614.4c-14.131 0-25.6-11.443-25.6-25.6s11.469-25.6 25.6-25.6h614.4c14.157 0 25.6 11.443 25.6 25.6s-11.443 25.6-25.6 25.6z" />
<glyph unicode="&#xe90e;" glyph-name="control-TextArea" d="M0 938.667v-204.8h76.8v-76.8h51.2v76.8h76.8v204.8h-204.8zM819.2 938.667v-204.8h204.8v204.8h-204.8zM51.2 887.467h102.4v-102.4h-102.4v102.4zM870.4 887.467h102.4v-102.4h-102.4v102.4zM281.6 861.867v-51.2h102.4v51.2h-102.4zM486.4 861.867v-51.2h102.4v51.2h-102.4zM691.2 861.867v-51.2h102.4v51.2h-102.4zM333.25 733.867c-7.091 0.307-14.348-2.097-19.75-7.55l-74.75-74.75c-10.317-10.291-10.317-27.083 0-37.4s27.059-10.317 37.35 0l68.45 68.5h141.85v-486.4h-50.7c-7.117 0.307-14.348-2.097-19.75-7.55l-23.6-23.55c-10.317-10.317-10.317-27.083 0-37.4 10.291-10.317 27.109-10.317 37.4 0l17.25 17.3h129.75l18.050-18c10.394-10.368 27.181-10.368 37.6 0 10.368 10.394 10.368 27.181 0 37.6l-24 24c-5.478 5.478-12.682 7.907-19.85 7.6h-50.95v486.4h141.55l69.25-69.2c10.394-10.368 27.155-10.368 37.6 0 10.368 10.368 10.368 27.181 0 37.6l-75.2 75.2c-5.478 5.478-12.706 7.907-19.9 7.6h-357.65zM896 657.067v-102.4h51.2v102.4h-51.2zM76.8 554.667v-102.4h51.2v102.4h-51.2zM896 452.267v-102.4h51.2v102.4h-51.2zM76.8 349.867v-102.4h51.2v102.4h-51.2zM896 247.467v-102.4h51.2v102.4h-51.2zM76.8 145.067v-25.6h-76.8v-204.8h204.8v76.8h76.8v51.2h-76.8v76.8h-76.8v25.6h-51.2zM819.2 119.467v-76.8h-25.6v-51.2h25.6v-76.8h204.8v204.8h-204.8zM51.2 68.267h102.4v-102.4h-102.4v102.4zM870.4 68.267h102.4v-102.4h-102.4v102.4zM384 42.667v-51.2h102.4v51.2h-102.4zM588.8 42.667v-51.2h102.4v51.2h-102.4z" />
<glyph unicode="&#xe90f;" glyph-name="control-Toggle" d="M332.8 913.067c-127.258 0-230.4-103.142-230.4-230.4s103.142-230.4 230.4-230.4h358.4c127.258 0 230.4 103.142 230.4 230.4s-103.142 230.4-230.4 230.4h-358.4zM332.8 861.867h358.4c98.97 0 179.2-80.23 179.2-179.2s-80.23-179.2-179.2-179.2h-358.4c-98.97 0-179.2 80.23-179.2 179.2s80.23 179.2 179.2 179.2zM332.8 810.667c-70.707 0-128-57.293-128-128s57.293-128 128-128c70.707 0 128 57.293 128 128s-57.293 128-128 128zM332.8 759.467c42.419 0 76.8-34.381 76.8-76.8s-34.381-76.8-76.8-76.8c-42.419 0-76.8 34.381-76.8 76.8s34.381 76.8 76.8 76.8zM332.8 401.067c-127.258 0-230.4-103.142-230.4-230.4s103.142-230.4 230.4-230.4h358.4c127.258 0 230.4 103.142 230.4 230.4s-103.142 230.4-230.4 230.4h-358.4zM332.8 349.867h358.4c98.97 0 179.2-80.23 179.2-179.2s-80.23-179.2-179.2-179.2h-358.4c-98.97 0-179.2 80.23-179.2 179.2s80.23 179.2 179.2 179.2zM691.2 298.667c-70.707 0-128-57.293-128-128s57.293-128 128-128c70.707 0 128 57.293 128 128s-57.293 128-128 128zM691.2 247.467c42.419 0 76.8-34.381 76.8-76.8s-34.381-76.8-76.8-76.8c-42.419 0-76.8 34.381-76.8 76.8s34.381 76.8 76.8 76.8z" />
<glyph unicode="&#xe910;" glyph-name="copy" d="M204.8 887.467c-56.525 0-102.4-45.875-102.4-102.4v-512c0-56.525 45.875-102.4 102.4-102.4h409.6c56.525 0 102.4 45.875 102.4 102.4v512c0 56.525-45.875 102.4-102.4 102.4h-409.6zM204.8 836.267h409.6c28.262 0 51.2-22.886 51.2-51.2v-512c0-28.314-22.938-51.2-51.2-51.2h-409.6c-28.262 0-51.2 22.886-51.2 51.2v512c0 28.314 22.938 51.2 51.2 51.2zM768 733.867v-51.2c28.262 0 51.2-22.886 51.2-51.2v-512c0-28.314-22.938-51.2-51.2-51.2h-409.6c-28.262 0-51.2 22.886-51.2 51.2h-51.2c0-56.525 45.875-102.4 102.4-102.4h409.6c56.525 0 102.4 45.875 102.4 102.4v512c0 56.525-45.875 102.4-102.4 102.4z" />
<glyph unicode="&#xe911;" glyph-name="dashboard, search-Dashboard" d="M828.8-85.333h-633.6c-105.6 0-195.2 89.6-195.2 195.2v320c0 281.6 227.2 508.8 505.6 508.8 288 0 518.4-230.4 518.4-518.4v-310.4c0-105.6-89.6-195.2-195.2-195.2zM505.6 874.667c-243.2 0-441.6-198.4-441.6-441.6v-320c0-73.6 60.8-134.4 131.2-134.4h630.4c73.6 0 131.2 60.8 131.2 131.2v310.4c3.2 249.6-201.6 454.4-451.2 454.4zM512 269.867c-3.2 0-6.4 0-6.4 0-32 3.2-64 19.2-80 48l-192 278.4c-9.6 9.6-9.6 25.6 0 38.4 9.6 9.6 25.6 12.8 38.4 6.4l294.4-172.8c28.8-16 48-44.8 51.2-76.8s-6.4-64-28.8-89.6c-19.2-22.4-48-32-76.8-32zM364.8 509.867l108.8-160c6.4-9.6 19.2-19.2 32-19.2s25.6 3.2 35.2 12.8c9.6 9.6 12.8 22.4 9.6 35.2s-9.6 22.4-19.2 32l-166.4 99.2zM678.4 573.867c-6.4 0-12.8 3.2-19.2 6.4-16 9.6-19.2 28.8-9.6 44.8l54.4 83.2c9.6 16 28.8 19.2 44.8 9.6 19.2-12.8 22.4-35.2 12.8-48l-54.4-83.2c-6.4-9.6-16-12.8-28.8-12.8z" />
<glyph unicode="&#xe912;" glyph-name="delete, bin" d="M597.35 119.467c14.131 0 25.6 11.469 25.6 25.6v307.2c0 14.080-11.469 25.6-25.6 25.6s-25.6-11.52-25.6-25.6v-307.2c0-14.131 11.418-25.6 25.6-25.6zM776.55 733.867h-153.6v51.2c0 28.314-22.886 51.2-51.2 51.2h-102.4c-28.262 0-51.2-22.886-51.2-51.2v-51.2h-153.6c-28.262 0-51.2-22.886-51.2-51.2v-102.4c0-28.314 22.938-51.2 51.2-51.2v-460.8c0-28.314 22.938-51.2 51.2-51.2h409.6c28.314 0 51.2 22.886 51.2 51.2v460.8c28.314 0 51.2 22.886 51.2 51.2v102.4c0 28.314-22.938 51.2-51.2 51.2zM469.35 785.067h102.4v-51.2h-102.4v51.2zM725.35 68.267h-409.6v460.8h409.6v-460.8zM776.55 580.267h-512v102.4h512v-102.4zM443.75 119.467c14.131 0 25.6 11.469 25.6 25.6v307.2c0 14.080-11.469 25.6-25.6 25.6s-25.6-11.52-25.6-25.6v-307.2c0-14.131 11.469-25.6 25.6-25.6z" />
<glyph unicode="&#xe913;" glyph-name="delete-filled" d="M832 810.667h-192v64c0 35.392-28.608 64-64 64h-128c-35.328 0-64-28.608-64-64v-64h-192c-35.328 0-64-28.608-64-64v-128c0-35.392 28.672-64 64-64v-512c0-35.392 28.672-64 64-64h512c35.392 0 64 28.608 64 64v512c35.392 0 64 28.608 64 64v128c0 35.392-28.608 64-64 64zM448 874.667h128v-64h-128v64zM448 138.667c0-17.664-14.336-32-32-32s-32 14.336-32 32v320c0 17.6 14.336 32 32 32s32-14.4 32-32v-320zM640 138.667c0-17.664-14.336-32-32-32s-32 14.336-32 32v320c0 17.6 14.336 32 32 32s32-14.4 32-32v-320zM832 618.667h-640v128h640v-128z" />
<glyph unicode="&#xe914;" glyph-name="document-delete" d="M358.4 836.267c-28.314 0-51.2-22.886-51.2-51.2v-256h51.2v256h307.2v-153.6c0-28.314 22.886-51.2 51.2-51.2h153.6v-512h-358.4v-51.2h358.4c28.314 0 51.2 22.886 51.2 51.2v548.2l-219.8 219.8h-343.4zM716.8 748.867l117.4-117.4h-117.4v117.4zM332.8 477.867c-127.232 0-230.4-103.168-230.4-230.4s103.168-230.4 230.4-230.4c127.232 0 230.4 103.168 230.4 230.4s-103.168 230.4-230.4 230.4zM332.8 426.667c98.816 0 179.2-80.384 179.2-179.2s-80.384-179.2-179.2-179.2c-98.816 0-179.2 80.384-179.2 179.2s80.384 179.2 179.2 179.2zM227.2 273.067c-12.39 0-22.4-10.061-22.4-22.4v-6.4c0-12.39 10.010-22.4 22.4-22.4h211.2c12.39 0 22.4 10.010 22.4 22.4v6.4c0 12.39-10.061 22.4-22.4 22.4h-211.2z" />
<glyph unicode="&#xe915;" glyph-name="document-disable" d="M358.4 836.267c-28.314 0-51.2-22.886-51.2-51.2v-256h51.2v256h307.2v-153.6c0-28.314 22.886-51.2 51.2-51.2h153.6v-512h-358.4v-51.2h358.4c28.314 0 51.2 22.886 51.2 51.2v548.2l-219.8 219.8h-343.4zM716.8 748.867l117.4-117.4h-117.4v117.4zM332.8 477.867c-127.232 0-230.4-103.168-230.4-230.4s103.168-230.4 230.4-230.4c127.232 0 230.4 103.168 230.4 230.4s-103.168 230.4-230.4 230.4zM332.8 426.667c39.934 0 76.475-13.533 106.3-35.7l-250.4-249c-21.807 29.683-35.1 65.924-35.1 105.5 0 98.816 80.384 179.2 179.2 179.2zM477 352.967c21.785-29.674 35-65.947 35-105.5 0-98.816-80.384-179.2-179.2-179.2-39.906 0-76.386 13.561-106.2 35.7l250.4 249z" />
<glyph unicode="&#xe916;" glyph-name="document-publish" d="M358.4 836.267c-28.314 0-51.2-22.886-51.2-51.2v-256h51.2v256h307.2v-153.6c0-28.314 22.886-51.2 51.2-51.2h153.6v-512h-358.4v-51.2h358.4c28.314 0 51.2 22.886 51.2 51.2v548.2l-219.8 219.8h-343.4zM716.8 748.867l117.4-117.4h-117.4v117.4zM332.8 477.867l-230.4-256v-51.2h102.4v-153.6h256v153.6h102.4v51.2l-230.4 256zM332.8 401.367l161.5-179.5h-84.7v-153.6h-153.6v153.6h-84.7l161.5 179.5z" />
<glyph unicode="&#xe917;" glyph-name="drag" d="M665.6 887.467v-102.4h102.4v102.4h-102.4zM460.8 785.067h102.4v102.4h-102.4v-102.4zM460.8 580.267h102.4v102.4h-102.4v-102.4zM665.6 580.267h102.4v102.4h-102.4v-102.4zM665.6 375.467h102.4v102.4h-102.4v-102.4zM460.8 375.467h102.4v102.4h-102.4v-102.4zM460.8 170.667h102.4v102.4h-102.4v-102.4zM665.6 170.667h102.4v102.4h-102.4v-102.4zM665.6-34.133h102.4v102.4h-102.4v-102.4zM460.8-34.133h102.4v102.4h-102.4v-102.4zM256 785.067h102.4v102.4h-102.4v-102.4zM256 580.267h102.4v102.4h-102.4v-102.4zM256 375.467h102.4v102.4h-102.4v-102.4zM256 170.667h102.4v102.4h-102.4v-102.4zM256-34.133h102.4v102.4h-102.4v-102.4z" />
<glyph unicode="&#xe918;" glyph-name="filter" d="M921.6 656.709c0 70.707-171.878 128.154-384 128.154s-384-57.19-384-127.898c0-10.035 3.789-19.712 10.342-29.030 0 0.051 296.858-406.067 296.858-406.067v-256l153.6 51.2v204.8c0 0 298.752 408.166 299.725 409.702 0 0 7.475 16.64 7.475 25.139zM537.6 733.867c206.899 0 318.208-53.248 332.083-76.8-13.875-23.552-125.184-76.8-332.083-76.8s-318.208 53.248-332.083 76.8c13.875 23.552 125.184 76.8 332.083 76.8zM869.376 592.811v0 0zM573.030 252.075c-6.4-8.755-9.83-19.354-9.83-30.208v-167.885l-51.2-17.050v184.934c0 10.854-3.43 21.453-9.83 30.208l-228.147 312.115c68.762-21.709 161.382-35.123 263.578-35.123 102.298 0 195.021 13.414 263.834 35.174-0.102-0.051-0.205-0.051-0.307-0.102l-228.096-312.064z" />
<glyph unicode="&#xe919;" glyph-name="help" d="M512 426.667h-204.8v-51.2h204.8v51.2zM768 785.067h-51.2c0 28.314-22.886 51.2-51.2 51.2h-307.2c-28.314 0-51.2-22.886-51.2-51.2h-51.2c-28.314 0-51.2-22.886-51.2-51.2v-665.6c0-28.314 22.886-51.2 51.2-51.2h512c28.314 0 51.2 22.886 51.2 51.2v665.6c0 28.314-22.886 51.2-51.2 51.2zM358.4 785.067h307.2v-51.2h-307.2v51.2zM768 119.467c0-28.314-22.886-51.2-51.2-51.2h-409.6c-28.314 0-51.2 22.886-51.2 51.2v563.2c0 28.314 22.886 51.2 51.2 51.2 0-28.314 22.886-51.2 51.2-51.2h307.2c28.314 0 51.2 22.886 51.2 51.2 28.314 0 51.2-22.886 51.2-51.2v-563.2zM307.2 477.867h409.6v51.2h-409.6v-51.2zM307.2 273.067h409.6v51.2h-409.6v-51.2z" />
<glyph unicode="&#xe91a;" glyph-name="type-Json, json" d="M179.2 682.667c0 28.262 22.938 51.2 51.2 51.2h25.6c14.157 0 25.6 11.443 25.6 25.6 0 14.131-11.443 25.6-25.6 25.6h-25.6c-56.55 0-102.4-45.85-102.4-102.4v-179.2c0-28.262-22.938-51.2-51.2-51.2h-25.6c-14.157 0-25.6-11.469-25.6-25.6 0-14.157 11.443-25.6 25.6-25.6h25.6c28.262 0 51.2-22.938 51.2-51.2v-179.2c0-56.55 45.85-102.4 102.4-102.4h25.6c14.157 0 25.6 11.443 25.6 25.6s-11.443 25.6-25.6 25.6h-25.6c-28.262 0-51.2 22.938-51.2 51.2v179.2c0 30.746-13.85 58.061-35.328 76.8 21.478 18.765 35.328 46.029 35.328 76.8v179.2zM972.8 452.267h-25.6c-28.262 0-51.2 22.938-51.2 51.2v179.2c0 56.55-45.85 102.4-102.4 102.4h-25.6c-14.157 0-25.6-11.469-25.6-25.6 0-14.157 11.443-25.6 25.6-25.6h25.6c28.262 0 51.2-22.938 51.2-51.2v-179.2c0-30.771 13.85-58.035 35.328-76.8-21.478-18.739-35.328-46.054-35.328-76.8v-179.2c0-28.262-22.938-51.2-51.2-51.2h-25.6c-14.157 0-25.6-11.443-25.6-25.6s11.443-25.6 25.6-25.6h25.6c56.55 0 102.4 45.85 102.4 102.4v179.2c0 28.262 22.938 51.2 51.2 51.2h25.6c14.157 0 25.6 11.443 25.6 25.6 0 14.131-11.443 25.6-25.6 25.6zM512 605.867c-14.157 0-25.6-11.469-25.6-25.6 0-14.157 11.443-25.6 25.6-25.6s25.6 11.443 25.6 25.6c0 14.131-11.443 25.6-25.6 25.6zM512 503.467c-14.157 0-25.6-11.469-25.6-25.6v-204.8c0-14.157 11.443-25.6 25.6-25.6s25.6 11.443 25.6 25.6v204.8c0 14.131-11.443 25.6-25.6 25.6z" />
<glyph unicode="&#xe91b;" glyph-name="location, control-Map, type-Geolocation" d="M512 938.667c-169.421 0-307.2-137.779-307.2-307.2 0-78.643 15.258-164.915 45.261-256.41 23.859-72.55 56.986-148.582 98.56-226.099 70.707-131.635 140.339-220.774 143.309-224.512 4.813-6.195 12.288-9.779 20.070-9.779 7.834 0 15.258 3.584 20.122 9.779 2.97 3.686 72.602 92.826 143.309 224.512 41.574 77.517 74.701 153.549 98.56 226.099 29.952 91.494 45.21 177.766 45.21 256.41 0 169.421-137.83 307.2-307.2 307.2zM630.682 173.995c-46.234-86.374-92.979-154.982-118.682-190.822-25.6 35.635-72.038 103.885-118.221 189.952-62.874 117.146-137.779 291.738-137.779 458.342 0 141.158 114.842 256 256 256s256-114.842 256-256c0-166.298-74.65-340.582-137.318-457.472zM512 785.067c-84.685 0-153.6-68.915-153.6-153.6s68.915-153.6 153.6-153.6 153.6 68.915 153.6 153.6-68.915 153.6-153.6 153.6zM512 529.067c-56.525 0-102.4 45.875-102.4 102.4 0 56.474 45.875 102.4 102.4 102.4 56.474 0 102.4-45.926 102.4-102.4 0-56.525-45.926-102.4-102.4-102.4z" />
<glyph unicode="&#xe91c;" glyph-name="logo" d="M512.273 854.885c-0.141-0.056-182.959-84.073-229.418-256.782-4.481-16.584 32.696-9.296 31.036-27.527-2.034-22.136-44.668-31.201-39.109-94.764 5.659-64.734 60.321-130.141 68.527-169.673v-27.655c-0.497-8.54-4.566-31.715-18.018-43.036-7.378-6.19-17.322-8.421-30.436-6.782-18.205 2.275-25.449 14.468-28.345 24.309-4.753 16.218-0.322 35.123 10.345 44 10.724 8.924 12.17 24.842 3.236 35.564-8.934 10.712-24.858 12.161-35.582 3.218-25.995-21.64-36.887-61.52-26.491-97 9.815-33.392 36.197-55.884 70.6-60.182 4.903-0.609 9.566-0.909 14-0.909 26.623 0 44.661 10.175 55.582 19.455 32.866 27.97 35.449 74.593 35.636 79.818 0.009 0.309 0.018 0.618 0.018 0.927v21.218h0.109v1.418c0 12.351 10.008 22.364 22.382 22.364 11.944 0 21.609-9.346 22.273-21.109v-202.491c-0.206-2.912-2.536-29.892-17.891-42.945-7.368-6.274-17.384-8.53-30.545-6.873-18.214 2.275-25.476 14.468-28.364 24.291-4.762 16.228-0.322 35.151 10.345 44.018 10.724 8.933 12.188 24.833 3.255 35.564-8.924 10.694-24.876 12.161-35.6 3.218-26.013-21.631-36.887-61.52-26.491-97 9.796-33.392 36.197-55.893 70.6-60.2 4.903-0.609 9.566-0.891 14-0.891 26.623 0 44.671 10.156 55.564 19.436 32.875 27.97 35.458 74.611 35.636 79.836 0.019 0.328 0.018 0.609 0.018 0.909v225.636l0.127 0.055v1c0 12.595 10.219 22.8 22.836 22.8 12.349 0 22.333-9.824 22.727-22.073v-227.418c0-0.309 0-0.591 0.018-0.909 0.187-5.216 2.779-51.866 35.655-79.836 10.912-9.28 28.959-19.436 55.582-19.436 4.443 0 9.088 0.282 13.982 0.891 34.394 4.307 60.804 26.818 70.6 60.2 10.405 35.48-0.487 75.36-26.491 97-10.743 8.943-26.676 7.466-35.6-3.218-8.934-10.74-7.488-26.63 3.236-35.564 10.668-8.868 15.135-27.79 10.364-44.018-2.878-9.823-10.159-22.015-28.364-24.291-13.105-1.648-23.050 0.592-30.418 6.782-13.508 11.358-17.558 34.657-18.036 43v201.818c0.297 12.093 10.14 21.818 22.327 21.818 12.374 0 22.4-10.003 22.4-22.364v-1.418h0.073v-21.218c0-0.318 0-0.628 0.018-0.927 0.178-5.216 2.779-51.848 35.655-79.818 10.912-9.28 28.941-19.455 55.564-19.455 4.434 0 9.107 0.292 14 0.891 34.394 4.298 60.786 26.818 70.582 60.2 10.405 35.48-0.487 75.351-26.491 97-10.743 8.933-26.667 7.476-35.582-3.236-8.943-10.722-7.488-26.622 3.236-35.545 10.668-8.877 15.117-27.8 10.345-44.018-2.878-9.842-10.159-22.025-28.364-24.291-13.086-1.648-23.050 0.583-30.418 6.764-13.508 11.368-17.549 34.675-18.018 43v21.018c5.305 54.103 63.095 107.777 69.091 176.364 5.531 63.563-37.121 72.627-39.145 94.764-1.669 18.232 35.498 10.944 31.036 27.527-46.468 172.709-229.269 256.726-229.4 256.782z" />
<glyph unicode="&#xe91d;" glyph-name="media, type-Assets, trigger-AssetChanged" d="M947.2 938.667h-870.4c-42.342 0-76.8-34.458-76.8-76.8v-870.4c0-42.342 34.458-76.8 76.8-76.8h870.4c42.342 0 76.8 34.458 76.8 76.8v870.4c0 42.342-34.458 76.8-76.8 76.8zM972.8-8.533c0-14.157-11.443-25.6-25.6-25.6h-870.4c-14.131 0-25.6 11.443-25.6 25.6v870.4c0 14.131 11.469 25.6 25.6 25.6h870.4c14.157 0 25.6-11.469 25.6-25.6v-870.4zM665.6 477.867c56.448 0 102.4 45.926 102.4 102.4s-45.952 102.4-102.4 102.4c-56.448 0-102.4-45.926-102.4-102.4s45.952-102.4 102.4-102.4zM665.6 631.467c28.211 0 51.2-22.989 51.2-51.2s-22.989-51.2-51.2-51.2c-28.211 0-51.2 22.989-51.2 51.2s22.989 51.2 51.2 51.2zM896 836.267h-768c-14.131 0-25.6-11.469-25.6-25.6v-614.4c0-14.157 11.469-25.6 25.6-25.6h768c14.157 0 25.6 11.443 25.6 25.6v614.4c0 14.131-11.443 25.6-25.6 25.6zM153.6 221.867v118.246l164.301 184.858c4.198 4.787 9.728 7.373 15.462 7.475 5.734 0.051 11.29-2.458 15.642-7.040l283.238-303.539h-478.643zM870.4 221.867h-168.090l-315.853 338.432c-14.285 15.334-33.331 23.603-53.709 23.347-20.326-0.256-39.219-9.011-53.094-24.627l-126.054-141.798v367.846h716.8v-563.2z" />
<glyph unicode="&#xe91e;" glyph-name="more, dots" d="M128 554.667c-70.656 0-128-57.344-128-128s57.344-128 128-128c70.656 0 128 57.344 128 128s-57.344 128-128 128zM512 554.667c-70.656 0-128-57.344-128-128s57.344-128 128-128c70.656 0 128 57.344 128 128s-57.344 128-128 128zM896 554.667c-70.656 0-128-57.344-128-128s57.344-128 128-128c70.656 0 128 57.344 128 128s-57.344 128-128 128z" />
<glyph unicode="&#xe91f;" glyph-name="pencil" d="M877.12 627.563l-66.304-66.368-228.224 228.224 66.368 66.368c25.216 25.152 66.048 25.152 91.264 0l136.896-137.024c25.216-25.216 25.216-65.984 0-91.2zM760.896 511.275l-386.176-386.112c-25.216-25.28-66.048-25.28-91.264 0l-136.96 136.896c-25.216 25.28-25.216 66.112 0 91.264l386.24 386.24 228.16-228.288zM64 42.667v191.872l191.936-191.872h-191.936z" />
<glyph unicode="&#xe920;" glyph-name="reference" d="M892.083 806.75c-73.523 73.498-193.152 73.498-266.65 0l-157.184-157.107c-9.958-10.035-9.958-26.214 0-36.275 10.061-9.984 26.24-9.984 36.25 0l157.133 157.107c53.504 53.555 140.672 53.555 194.176 0 53.581-53.504 53.581-140.672 0-194.176l-186.138-186.163c-53.53-53.581-140.672-53.581-194.176 0-10.086 10.010-26.24 10.010-36.275 0-10.035-10.086-10.035-26.189 0-36.25 36.787-36.736 84.992-55.117 133.325-55.117s96.589 18.432 133.376 55.117l186.163 186.214c73.498 73.472 73.498 193.152 0 266.65zM519.45 239.941l-157.082-157.082c-53.504-53.555-140.672-53.555-194.176 0-53.581 53.504-53.581 140.672 0 194.176l186.138 186.163c53.53 53.581 140.672 53.581 194.176 0 10.086-9.984 26.189-9.984 36.275 0 10.035 10.086 10.035 26.214 0 36.25-73.549 73.498-193.203 73.498-266.701 0l-186.163-186.163c-73.498-73.574-73.498-193.203 0-266.701 36.787-36.71 85.043-55.117 133.325-55.117 48.333 0 96.538 18.406 133.325 55.117l157.133 157.133c10.010 10.010 10.010 26.189 0 36.224-10.010 9.984-26.189 9.984-36.25 0z" />
<glyph unicode="&#xe921;" glyph-name="schemas, search-Schema" d="M800-85.333h-576c-124.8 0-224 99.2-224 224v300.8c0 124.8 99.2 224 224 224h576c124.8 0 224-99.2 224-224v-300.8c0-124.8-99.2-224-224-224zM224 599.467c-89.6 0-160-70.4-160-160v-300.8c0-89.6 70.4-160 160-160h576c89.6 0 160 70.4 160 160v300.8c0 89.6-70.4 160-160 160h-576zM828.8 737.067h-633.6c-19.2 0-32 12.8-32 32s12.8 32 32 32h630.4c19.2 0 32-12.8 32-32s-12.8-32-28.8-32zM716.8 874.667h-409.6c-19.2 0-32 12.8-32 32s12.8 32 32 32h412.8c19.2 0 32-12.8 32-32s-16-32-35.2-32zM800 522.667v-64c0-48-38.4-83.2-83.2-83.2h-409.6c-44.8-3.2-83.2 35.2-83.2 83.2v64h-54.4v-64c0-76.8 64-140.8 140.8-140.8h406.4c76.8 0 140.8 64 140.8 140.8v64h-57.6z" />
<glyph unicode="&#xe922;" glyph-name="search" d="M939.776-65.109c-27.2-27.008-71.232-27.008-98.368 0l-168.96 168.96c-66.176-38.464-142.016-62.080-224-62.080-247.744 0-448.448 200.832-448.448 448.448 0 247.744 200.704 448.448 448.448 448.448 247.68 0 448.512-200.704 448.512-448.448 0-115.136-44.672-218.944-115.904-298.304l158.656-158.656c27.008-27.136 27.008-71.168 0.064-98.368zM448.448 810.539c-176.896 0-320.32-143.36-320.32-320.32s143.424-320.32 320.32-320.32c176.96 0 320.384 143.36 320.384 320.32s-143.488 320.32-320.384 320.32z" />
<glyph unicode="&#xe923;" glyph-name="settings, search-Setting" d="M1019.11 497.912c-1.946 13.747-14.438 23.398-28.16 21.888-16.947-1.843-34.253 0.589-50.048 7.091-52.25 21.504-77.261 81.459-55.757 133.709 6.605 15.846 16.947 29.85 30.208 40.602 10.803 8.653 12.698 24.294 4.352 35.354-28.902 37.99-62.797 71.706-100.838 100.045-10.701 8.090-25.805 6.451-34.662-3.661-28.8-33.254-75.546-44.262-116.198-27.546-40.704 16.742-66.099 57.498-63.206 101.453 0.845 13.338-8.755 25.19-21.99 27.008-47.002 6.605-94.797 6.605-142.054-0.077-13.722-1.946-23.398-14.387-21.862-28.211 1.843-16.896-0.614-34.202-7.168-49.997-21.504-52.25-81.408-77.21-133.632-55.706-15.821 6.502-29.85 16.947-40.602 30.157-8.653 10.752-24.32 12.698-35.379 4.301-37.99-28.851-71.68-62.694-100.045-100.762-8.090-10.701-6.451-25.83 3.635-34.637 33.28-28.902 44.288-75.597 27.546-116.301-16.742-40.653-57.498-66.048-101.427-63.155-13.363 0.845-25.19-8.755-26.982-21.99-6.63-47.002-6.63-94.822 0.102-142.080 1.946-13.696 14.387-23.322 28.16-21.811 16.896 1.818 34.202-0.691 50.022-7.168 52.224-21.53 77.21-81.459 55.706-133.734-6.502-15.795-16.947-29.773-30.157-40.525-10.803-8.73-12.698-24.346-4.352-35.354 28.877-38.042 62.822-71.731 100.813-100.122 1.741-1.357 3.661-2.355 5.606-3.2 9.933-4.045 21.709-1.536 29.082 6.938 28.826 33.178 75.571 44.262 116.275 27.52 40.653-16.742 66.048-57.498 63.13-101.453-0.819-13.338 8.755-25.165 22.067-27.059 47.002-6.579 94.72-6.554 142.029 0.102 13.645 1.971 23.347 14.464 21.811 28.237-1.843 16.947 0.691 34.253 7.194 50.048 21.504 52.25 81.459 77.21 133.658 55.68 15.795-6.528 29.85-16.947 40.55-30.157 8.704-10.803 24.346-12.698 35.405-4.326 37.99 28.902 71.654 62.746 100.096 100.813 7.987 10.675 6.4 25.805-3.712 34.662-33.254 28.826-44.288 75.571-27.546 116.224 16.742 40.73 57.498 66.099 101.453 63.232 13.338-0.922 25.139 8.678 27.008 21.965 6.554 47.002 6.502 94.771-0.128 142.003zM971.059 384.657c-56.141-5.274-105.702-41.114-127.642-94.464s-12.058-113.613 24.090-156.902c-17.69-21.478-37.453-41.318-58.854-59.315-12.749 11.213-27.392 20.352-43.238 26.854-78.259 32.282-168.243-5.197-200.499-83.584-6.502-15.718-10.291-32.563-11.29-49.536-27.853-2.56-55.859-2.637-83.61-0.077-5.274 56.090-41.114 105.677-94.464 127.616-53.35 21.99-113.613 11.981-156.928-24.064-21.504 17.69-41.318 37.453-59.29 58.88 11.213 12.723 20.352 27.392 26.906 43.136 32.205 78.387-5.274 168.294-83.584 200.55-15.821 6.502-32.589 10.342-49.613 11.366-2.534 27.853-2.586 55.859 0 83.558 56.090 5.299 105.626 41.088 127.565 94.438 21.965 53.402 12.058 113.638-24.090 156.902 17.69 21.555 37.478 41.395 58.88 59.341 12.749-11.213 27.392-20.352 43.213-26.854 78.285-32.256 168.218 5.248 200.474 83.558 6.528 15.795 10.342 32.589 11.366 49.613 27.853 2.509 55.808 2.56 83.558 0 5.299-56.090 41.139-105.6 94.49-127.59 53.35-21.939 113.638-12.006 156.902 24.090 21.504-17.741 41.293-37.453 59.29-58.854-11.213-12.8-20.352-27.392-26.854-43.213-32.256-78.31 5.248-168.294 83.507-200.499 15.846-6.502 32.691-10.342 49.638-11.392 2.56-27.853 2.611-55.808 0.077-83.558zM512 631.467c-113.101 0-204.8-91.699-204.8-204.8 0-113.126 91.699-204.826 204.8-204.826s204.8 91.699 204.8 204.826c0 113.101-91.699 204.8-204.8 204.8zM512 273.041c-84.813 0-153.6 68.813-153.6 153.626 0 84.838 68.787 153.6 153.6 153.6 84.838 0 153.6-68.762 153.6-153.6 0-84.813-68.762-153.626-153.6-153.626z" />
<glyph unicode="&#xe924;" glyph-name="type-Boolean" d="M77.005 836.062h128v-332.8c0-14.131 11.418-25.6 25.6-25.6 14.106 0 25.6 11.469 25.6 25.6v332.8h128c14.106 0 25.6 11.469 25.6 25.6 0 14.157-11.494 25.6-25.6 25.6h-307.2c-14.182 0-25.6-11.443-25.6-25.6 0-14.106 11.418-25.6 25.6-25.6zM947.405 221.688h-179.2v102.4h179.2c14.157 0 25.6 11.443 25.6 25.6s-11.443 25.6-25.6 25.6h-204.8c-14.182 0-25.6-11.443-25.6-25.6v-358.4c0-14.157 11.418-25.6 25.6-25.6 14.157 0 25.6 11.443 25.6 25.6v179.2h179.2c14.157 0 25.6 11.443 25.6 25.6s-11.494 25.6-25.6 25.6zM965.094 880.197c-9.958 9.933-26.112 9.933-36.045 0l-870.605-870.579c-9.958-9.984-9.958-26.086 0-36.045 10.010-9.984 26.112-9.984 36.045 0l870.605 870.579c9.958 9.933 9.958 26.086 0 36.045z" />
<glyph unicode="&#xe925;" glyph-name="type-DateTime" d="M947.2 836.267h-128v25.6c0 14.131-11.469 25.6-25.6 25.6s-25.6-11.469-25.6-25.6v-25.6h-512v25.6c0 14.131-11.52 25.6-25.6 25.6s-25.6-11.469-25.6-25.6v-25.6h-128c-42.342 0-76.8-34.458-76.8-76.8v-716.8c0-42.342 34.458-76.8 76.8-76.8h870.4c42.342 0 76.8 34.458 76.8 76.8v716.8c0 42.342-34.458 76.8-76.8 76.8zM972.8 42.667c0-14.131-11.469-25.6-25.6-25.6h-870.4c-14.080 0-25.6 11.469-25.6 25.6v537.6h921.6v-537.6zM972.8 631.467h-921.6v128c0 14.080 11.52 25.6 25.6 25.6h128v-76.8c0-14.080 11.52-25.6 25.6-25.6s25.6 11.52 25.6 25.6v76.8h512v-76.8c0-14.080 11.469-25.6 25.6-25.6s25.6 11.52 25.6 25.6v76.8h128c14.131 0 25.6-11.52 25.6-25.6v-128zM332.8 426.667h51.2c14.080 0 25.6 11.52 25.6 25.6s-11.52 25.6-25.6 25.6h-51.2c-14.080 0-25.6-11.52-25.6-25.6s11.52-25.6 25.6-25.6zM486.4 426.667h51.2c14.131 0 25.6 11.52 25.6 25.6s-11.469 25.6-25.6 25.6h-51.2c-14.080 0-25.6-11.52-25.6-25.6s11.52-25.6 25.6-25.6zM640 426.667h51.2c14.131 0 25.6 11.52 25.6 25.6s-11.469 25.6-25.6 25.6h-51.2c-14.131 0-25.6-11.52-25.6-25.6s11.469-25.6 25.6-25.6zM793.6 426.667h51.2c14.131 0 25.6 11.52 25.6 25.6s-11.469 25.6-25.6 25.6h-51.2c-14.131 0-25.6-11.52-25.6-25.6s11.469-25.6 25.6-25.6zM179.2 324.267h51.2c14.080 0 25.6 11.469 25.6 25.6s-11.52 25.6-25.6 25.6h-51.2c-14.080 0-25.6-11.469-25.6-25.6s11.52-25.6 25.6-25.6zM332.8 324.267h51.2c14.080 0 25.6 11.469 25.6 25.6s-11.52 25.6-25.6 25.6h-51.2c-14.080 0-25.6-11.469-25.6-25.6s11.52-25.6 25.6-25.6zM486.4 324.267h51.2c14.131 0 25.6 11.469 25.6 25.6s-11.469 25.6-25.6 25.6h-51.2c-14.080 0-25.6-11.469-25.6-25.6s11.52-25.6 25.6-25.6zM640 324.267h51.2c14.131 0 25.6 11.469 25.6 25.6s-11.469 25.6-25.6 25.6h-51.2c-14.131 0-25.6-11.469-25.6-25.6s11.469-25.6 25.6-25.6zM793.6 324.267h51.2c14.131 0 25.6 11.469 25.6 25.6s-11.469 25.6-25.6 25.6h-51.2c-14.131 0-25.6-11.469-25.6-25.6s11.469-25.6 25.6-25.6zM179.2 221.867h51.2c14.080 0 25.6 11.469 25.6 25.6s-11.52 25.6-25.6 25.6h-51.2c-14.080 0-25.6-11.469-25.6-25.6s11.52-25.6 25.6-25.6zM332.8 221.867h51.2c14.080 0 25.6 11.469 25.6 25.6s-11.52 25.6-25.6 25.6h-51.2c-14.080 0-25.6-11.469-25.6-25.6s11.52-25.6 25.6-25.6zM486.4 221.867h51.2c14.131 0 25.6 11.469 25.6 25.6s-11.469 25.6-25.6 25.6h-51.2c-14.080 0-25.6-11.469-25.6-25.6s11.52-25.6 25.6-25.6zM640 221.867h51.2c14.131 0 25.6 11.469 25.6 25.6s-11.469 25.6-25.6 25.6h-51.2c-14.131 0-25.6-11.469-25.6-25.6s11.469-25.6 25.6-25.6zM793.6 221.867h51.2c14.131 0 25.6 11.469 25.6 25.6s-11.469 25.6-25.6 25.6h-51.2c-14.131 0-25.6-11.469-25.6-25.6s11.469-25.6 25.6-25.6zM179.2 119.467h51.2c14.080 0 25.6 11.469 25.6 25.6s-11.52 25.6-25.6 25.6h-51.2c-14.080 0-25.6-11.469-25.6-25.6s11.52-25.6 25.6-25.6zM332.8 119.467h51.2c14.080 0 25.6 11.469 25.6 25.6s-11.52 25.6-25.6 25.6h-51.2c-14.080 0-25.6-11.469-25.6-25.6s11.52-25.6 25.6-25.6zM486.4 119.467h51.2c14.131 0 25.6 11.469 25.6 25.6s-11.469 25.6-25.6 25.6h-51.2c-14.080 0-25.6-11.469-25.6-25.6s11.52-25.6 25.6-25.6zM640 119.467h51.2c14.131 0 25.6 11.469 25.6 25.6s-11.469 25.6-25.6 25.6h-51.2c-14.131 0-25.6-11.469-25.6-25.6s11.469-25.6 25.6-25.6zM793.6 119.467h51.2c14.131 0 25.6 11.469 25.6 25.6s-11.469 25.6-25.6 25.6h-51.2c-14.131 0-25.6-11.469-25.6-25.6s11.469-25.6 25.6-25.6z" />
<glyph unicode="&#xe926;" glyph-name="type-Number" d="M256 273.067h-76.8v332.8c0 14.131-11.469 25.6-25.6 25.6h-76.8c-14.131 0-25.6-11.469-25.6-25.6s11.469-25.6 25.6-25.6h51.2v-307.2h-76.8c-14.131 0-25.6-11.469-25.6-25.6s11.469-25.6 25.6-25.6h204.8c14.131 0 25.6 11.469 25.6 25.6s-11.469 25.6-25.6 25.6zM614.4 631.467h-204.8c-14.131 0-25.6-11.469-25.6-25.6s11.469-25.6 25.6-25.6h179.2v-128h-179.2c-14.131 0-25.6-11.469-25.6-25.6v-179.2c0-14.131 11.469-25.6 25.6-25.6h204.8c14.131 0 25.6 11.469 25.6 25.6s-11.469 25.6-25.6 25.6h-179.2v128h179.2c14.131 0 25.6 11.469 25.6 25.6v179.2c0 14.131-11.469 25.6-25.6 25.6zM972.8 631.467h-204.8c-14.131 0-25.6-11.469-25.6-25.6s11.469-25.6 25.6-25.6h179.2v-128h-179.2c-14.131 0-25.6-11.469-25.6-25.6s11.469-25.6 25.6-25.6h179.2v-128h-179.2c-14.131 0-25.6-11.469-25.6-25.6s11.469-25.6 25.6-25.6h204.8c14.131 0 25.6 11.469 25.6 25.6v358.4c0 14.131-11.469 25.6-25.6 25.6z" />
<glyph unicode="&#xe927;" glyph-name="type-String" d="M870.4 17.067h-716.8c-14.131 0-25.6-11.443-25.6-25.6s11.469-25.6 25.6-25.6h716.8c14.157 0 25.6 11.443 25.6 25.6s-11.443 25.6-25.6 25.6zM194.688 121.515c13.030-5.555 28.083 0.461 33.613 13.44l125.030 291.712h317.338l125.005-291.712c4.173-9.677 13.568-15.488 23.526-15.488 3.405 0 6.81 0.64 10.112 2.048 13.005 5.606 18.995 20.659 13.44 33.638l-131.61 306.944c-0.051 0.051-0.051 0.154-0.102 0.205l-175.488 409.6c-4.045 9.472-13.312 15.565-23.552 15.565s-19.507-6.093-23.552-15.514l-175.488-409.6c-0.051-0.051-0.051-0.154-0.102-0.205l-131.61-306.97c-5.53-13.005 0.461-28.058 13.44-33.664zM512 796.894l136.704-319.027h-273.408l136.704 319.027z" />
<glyph unicode="&#xe928;" glyph-name="user" d="M955.221 90.667c0 0.109 10.752 0 0 0-52.751 161.392-240.461 224-443.178 224-202.269 0-389.979-63.392-443.066-224-11.2 0.109 0 1.232 0 0 0-61.936 49.615-112 110.654-112h664.823c61.151 0 110.766 50.064 110.766 112zM290.399 650.667c0-123.648 99.231-336 221.645-336s221.645 212.352 221.645 336c0 123.648-99.231 224-221.645 224s-221.645-100.352-221.645-224z" />
<glyph unicode="&#xe929;" glyph-name="caret-right" horiz-adv-x="329" d="M329.143 438.857c0-9.714-4-18.857-10.857-25.714l-256-256c-6.857-6.857-16-10.857-25.714-10.857-20 0-36.571 16.571-36.571 36.571v512c0 20 16.571 36.571 36.571 36.571 9.714 0 18.857-4 25.714-10.857l256-256c6.857-6.857 10.857-16 10.857-25.714z" />
<glyph unicode="&#xe92a;" glyph-name="caret-left" horiz-adv-x="402" d="M365.714 694.857v-512c0-20-16.571-36.571-36.571-36.571-9.714 0-18.857 4-25.714 10.857l-256 256c-6.857 6.857-10.857 16-10.857 25.714s4 18.857 10.857 25.714l256 256c6.857 6.857 16 10.857 25.714 10.857 20 0 36.571-16.571 36.571-36.571z" />
<glyph unicode="&#xe92b;" glyph-name="caret-up" horiz-adv-x="585" d="M585.143 256c0-20-16.571-36.571-36.571-36.571h-512c-20 0-36.571 16.571-36.571 36.571 0 9.714 4 18.857 10.857 25.714l256 256c6.857 6.857 16 10.857 25.714 10.857s18.857-4 25.714-10.857l256-256c6.857-6.857 10.857-16 10.857-25.714z" />
<glyph unicode="&#xe92c;" glyph-name="caret-down" horiz-adv-x="585" d="M585.143 548.571c0-9.714-4-18.857-10.857-25.714l-256-256c-6.857-6.857-16-10.857-25.714-10.857s-18.857 4-25.714 10.857l-256 256c-6.857 6.857-10.857 16-10.857 25.714 0 20 16.571 36.571 36.571 36.571h512c20 0 36.571-16.571 36.571-36.571z" />
<glyph unicode="&#xe92d;" glyph-name="settings2" d="M933.79 349.75c-53.726 93.054-21.416 212.304 72.152 266.488l-100.626 174.292c-28.75-16.854-62.176-26.518-97.846-26.518-107.536 0-194.708 87.746-194.708 195.99h-201.258c0.266-33.41-8.074-67.282-25.958-98.252-53.724-93.056-173.156-124.702-266.862-70.758l-100.624-174.292c28.97-16.472 54.050-40.588 71.886-71.478 53.638-92.908 21.512-211.92-71.708-266.224l100.626-174.292c28.65 16.696 61.916 26.254 97.4 26.254 107.196 0 194.144-87.192 194.7-194.958h201.254c-0.086 33.074 8.272 66.57 25.966 97.218 53.636 92.906 172.776 124.594 266.414 71.012l100.626 174.29c-28.78 16.466-53.692 40.498-71.434 71.228zM512 240.668c-114.508 0-207.336 92.824-207.336 207.334 0 114.508 92.826 207.334 207.336 207.334 114.508 0 207.332-92.826 207.332-207.334-0.002-114.51-92.824-207.334-207.332-207.334z" />
<glyph unicode="&#xe92e;" glyph-name="reset" d="M889.68 793.68c-93.608 102.216-228.154 166.32-377.68 166.32-282.77 0-512-229.23-512-512h96c0 229.75 186.25 416 416 416 123.020 0 233.542-53.418 309.696-138.306l-149.696-149.694h352v352l-134.32-134.32zM928 448c0-229.75-186.25-416-416-416-123.020 0-233.542 53.418-309.694 138.306l149.694 149.694h-352v-352l134.32 134.32c93.608-102.216 228.154-166.32 377.68-166.32 282.77 0 512 229.23 512 512h-96z" />
<glyph unicode="&#xe92f;" glyph-name="pause" d="M128 832h320v-768h-320zM576 832h320v-768h-320z" />
<glyph unicode="&#xe930;" glyph-name="play" d="M192 832l640-384-640-384z" />
<glyph unicode="&#xe931;" glyph-name="angle-right" horiz-adv-x="347" d="M340 402.286c0-4.571-2.286-9.714-5.714-13.143l-266.286-266.286c-3.429-3.429-8.571-5.714-13.143-5.714s-9.714 2.286-13.143 5.714l-28.571 28.571c-3.429 3.429-5.714 8-5.714 13.143 0 4.571 2.286 9.714 5.714 13.143l224.571 224.571-224.571 224.571c-3.429 3.429-5.714 8.571-5.714 13.143s2.286 9.714 5.714 13.143l28.571 28.571c3.429 3.429 8.571 5.714 13.143 5.714s9.714-2.286 13.143-5.714l266.286-266.286c3.429-3.429 5.714-8.571 5.714-13.143z" />
<glyph unicode="&#xe932;" glyph-name="user-o" d="M512 886.857c-131.696 0-239.125-107.4-239.125-239 0-65.8 24.831-146.717 65.375-215.25 19.653-33.221 43.902-63.853 71.75-87.125-59.423-7.524-122.009-9.415-172.125-32-79.809-35.967-144.343-94.74-172.375-178.625-1.5-9.499 0 0-1.5-9v-0.499c0-73.995 60.563-134.501 134.375-134.501h627.125c73.888 0 134.5 60.506 134.5 134.5l-1.5 9.375c-27.845 84.263-92.273 143.119-172.125 179-50.17 22.544-112.844 24.421-172.375 31.875 27.792 23.26 52.002 53.831 71.625 87 40.544 68.533 65.375 149.45 65.375 215.25 0 131.6-107.304 239-239 239zM512 826.857c99.241 0 179-79.875 179-179 0-49.562-21.877-125.381-57-184.75s-81.435-98.75-122-98.75c-40.565 0-86.877 39.381-122 98.75s-57.125 135.188-57.125 184.75c0 99.125 79.884 179 179.125 179zM512 304.357c92.551 0 180.829-14.406 249.75-45.375 66.784-30.009 113.649-74.724 136.5-137.75-2.447-39.259-32.9-70.375-72.75-70.375h-627.125c-39.678 0-70.116 31.051-72.625 70.25 22.978 62.705 69.953 107.523 136.75 137.625 68.937 31.067 157.205 45.625 249.5 45.625z" />
<glyph unicode="&#xe933;" glyph-name="unlocked" d="M768 896c105.87 0 192-86.13 192-192v-192h-128v192c0 35.29-28.71 64-64 64h-128c-35.29 0-64-28.71-64-64v-192h16c26.4 0 48-21.6 48-48v-480c0-26.4-21.6-48-48-48h-544c-26.4 0-48 21.6-48 48v480c0 26.4 21.6 48 48 48h400v192c0 105.87 86.13 192 192 192h128z" />
<glyph unicode="&#xe934;" glyph-name="lock" d="M592 512h-16v192c0 105.87-86.13 192-192 192h-128c-105.87 0-192-86.13-192-192v-192h-16c-26.4 0-48-21.6-48-48v-480c0-26.4 21.6-48 48-48h544c26.4 0 48 21.6 48 48v480c0 26.4-21.6 48-48 48zM192 704c0 35.29 28.71 64 64 64h128c35.29 0 64-28.71 64-64v-192h-256v192z" />
<glyph unicode="&#xe935;" glyph-name="browser" horiz-adv-x="1344" d="M1328 640c-8.832 0-16-7.168-16-16v-640c0-8.832-7.168-16-16-16h-1248c-8.832 0-16 7.168-16 16v640c0 8.832-7.168 16-16 16s-16-7.168-16-16v-640c0-26.464 21.536-48 48-48h1248c26.464 0 48 21.536 48 48v640c0 8.832-7.168 16-16 16zM1296 960h-1248c-26.464 0-48-21.536-48-48v-192c0-8.832 7.168-16 16-16h1312c8.832 0 16 7.168 16 16v192c0 26.464-21.536 48-48 48zM1312 736h-1280v176c0 8.832 7.168 16 16 16h1248c8.832 0 16-7.168 16-16v-176zM560 64c8.832 0 16 7.168 16 16v512c0 8.832-7.168 16-16 16h-416c-8.832 0-16-7.168-16-16v-512c0-8.832 7.168-16 16-16h416zM160 576h384v-480h-384v480zM720 480h480c8.832 0 16 7.168 16 16s-7.168 16-16 16h-480c-8.832 0-16-7.168-16-16s7.168-16 16-16zM720 320h480c8.832 0 16 7.168 16 16s-7.168 16-16 16h-480c-8.832 0-16-7.168-16-16s7.168-16 16-16zM720 160h480c8.832 0 16 7.168 16 16s-7.168 16-16 16h-480c-8.832 0-16-7.168-16-16s7.168-16 16-16zM96 832c0-17.673 14.327-32 32-32s32 14.327 32 32c0 17.673-14.327 32-32 32s-32-14.327-32-32zM224 832c0-17.673 14.327-32 32-32s32 14.327 32 32c0 17.673-14.327 32-32 32s-32-14.327-32-32zM352 832c0-17.673 14.327-32 32-32s32 14.327 32 32c0 17.673-14.327 32-32 32s-32-14.327-32-32z" />
<glyph unicode="&#xe936;" glyph-name="control-Date" d="M947.2 848.457h-128v25.6c0 14.131-11.469 25.6-25.6 25.6s-25.6-11.469-25.6-25.6v-25.6h-512v25.6c0 14.131-11.52 25.6-25.6 25.6s-25.6-11.469-25.6-25.6v-25.6h-128c-42.342 0-76.8-34.458-76.8-76.8v-716.8c0-42.342 34.458-76.8 76.8-76.8h870.4c42.342 0 76.8 34.458 76.8 76.8v716.8c0 42.342-34.458 76.8-76.8 76.8zM972.8 54.857c0-14.131-11.469-25.6-25.6-25.6h-870.4c-14.080 0-25.6 11.469-25.6 25.6v537.6h921.6v-537.6zM972.8 643.657h-921.6v128c0 14.080 11.52 25.6 25.6 25.6h128v-76.8c0-14.080 11.52-25.6 25.6-25.6s25.6 11.52 25.6 25.6v76.8h512v-76.8c0-14.080 11.469-25.6 25.6-25.6s25.6 11.52 25.6 25.6v76.8h128c14.131 0 25.6-11.52 25.6-25.6v-128zM332.8 438.857h51.2c14.080 0 25.6 11.52 25.6 25.6s-11.52 25.6-25.6 25.6h-51.2c-14.080 0-25.6-11.52-25.6-25.6s11.52-25.6 25.6-25.6zM486.4 438.857h51.2c14.131 0 25.6 11.52 25.6 25.6s-11.469 25.6-25.6 25.6h-51.2c-14.080 0-25.6-11.52-25.6-25.6s11.52-25.6 25.6-25.6zM640 438.857h51.2c14.131 0 25.6 11.52 25.6 25.6s-11.469 25.6-25.6 25.6h-51.2c-14.131 0-25.6-11.52-25.6-25.6s11.469-25.6 25.6-25.6zM793.6 438.857h51.2c14.131 0 25.6 11.52 25.6 25.6s-11.469 25.6-25.6 25.6h-51.2c-14.131 0-25.6-11.52-25.6-25.6s11.469-25.6 25.6-25.6zM179.2 336.457h51.2c14.080 0 25.6 11.469 25.6 25.6s-11.52 25.6-25.6 25.6h-51.2c-14.080 0-25.6-11.469-25.6-25.6s11.52-25.6 25.6-25.6zM332.8 336.457h51.2c14.080 0 25.6 11.469 25.6 25.6s-11.52 25.6-25.6 25.6h-51.2c-14.080 0-25.6-11.469-25.6-25.6s11.52-25.6 25.6-25.6zM486.4 336.457h51.2c14.131 0 25.6 11.469 25.6 25.6s-11.469 25.6-25.6 25.6h-51.2c-14.080 0-25.6-11.469-25.6-25.6s11.52-25.6 25.6-25.6zM640 336.457h51.2c14.131 0 25.6 11.469 25.6 25.6s-11.469 25.6-25.6 25.6h-51.2c-14.131 0-25.6-11.469-25.6-25.6s11.469-25.6 25.6-25.6zM793.6 336.457h51.2c14.131 0 25.6 11.469 25.6 25.6s-11.469 25.6-25.6 25.6h-51.2c-14.131 0-25.6-11.469-25.6-25.6s11.469-25.6 25.6-25.6zM179.2 234.057h51.2c14.080 0 25.6 11.469 25.6 25.6s-11.52 25.6-25.6 25.6h-51.2c-14.080 0-25.6-11.469-25.6-25.6s11.52-25.6 25.6-25.6zM332.8 234.057h51.2c14.080 0 25.6 11.469 25.6 25.6s-11.52 25.6-25.6 25.6h-51.2c-14.080 0-25.6-11.469-25.6-25.6s11.52-25.6 25.6-25.6zM486.4 234.057h51.2c14.131 0 25.6 11.469 25.6 25.6s-11.469 25.6-25.6 25.6h-51.2c-14.080 0-25.6-11.469-25.6-25.6s11.52-25.6 25.6-25.6zM640 234.057h51.2c14.131 0 25.6 11.469 25.6 25.6s-11.469 25.6-25.6 25.6h-51.2c-14.131 0-25.6-11.469-25.6-25.6s11.469-25.6 25.6-25.6zM793.6 234.057h51.2c14.131 0 25.6 11.469 25.6 25.6s-11.469 25.6-25.6 25.6h-51.2c-14.131 0-25.6-11.469-25.6-25.6s11.469-25.6 25.6-25.6zM179.2 131.657h51.2c14.080 0 25.6 11.469 25.6 25.6s-11.52 25.6-25.6 25.6h-51.2c-14.080 0-25.6-11.469-25.6-25.6s11.52-25.6 25.6-25.6zM332.8 131.657h51.2c14.080 0 25.6 11.469 25.6 25.6s-11.52 25.6-25.6 25.6h-51.2c-14.080 0-25.6-11.469-25.6-25.6s11.52-25.6 25.6-25.6zM486.4 131.657h51.2c14.131 0 25.6 11.469 25.6 25.6s-11.469 25.6-25.6 25.6h-51.2c-14.080 0-25.6-11.469-25.6-25.6s11.52-25.6 25.6-25.6zM640 131.657h51.2c14.131 0 25.6 11.469 25.6 25.6s-11.469 25.6-25.6 25.6h-51.2c-14.131 0-25.6-11.469-25.6-25.6s11.469-25.6 25.6-25.6zM793.6 131.657h51.2c14.131 0 25.6 11.469 25.6 25.6s-11.469 25.6-25.6 25.6h-51.2c-14.131 0-25.6-11.469-25.6-25.6s11.469-25.6 25.6-25.6z" />
<glyph unicode="&#xe937;" glyph-name="control-DateTime" d="M486.4 541.257h51.2c14.080 0 25.6-11.52 25.6-25.6s-11.52-25.6-25.6-25.6h-51.2c-14.080 0-25.6 11.52-25.6 25.6s11.52 25.6 25.6 25.6zM230.4 336.457c14.080 0 25.6-11.469 25.6-25.6s-11.52-25.6-25.6-25.6h-51.2c-14.080 0-25.6 11.469-25.6 25.6s11.52 25.6 25.6 25.6h51.2zM230.4 438.857c14.080 0 25.6-11.469 25.6-25.6s-11.52-25.6-25.6-25.6h-51.2c-14.080 0-25.6 11.469-25.6 25.6s11.52 25.6 25.6 25.6h51.2zM51.2 208.457v435.2h665.6v-102.4h51.2v281.6c0 42.342-34.458 76.8-76.8 76.8h-128v25.6c0 14.131-11.469 25.6-25.6 25.6s-25.6-11.469-25.6-25.6v-25.6h-256v25.6c0 14.131-11.52 25.6-25.6 25.6s-25.6-11.469-25.6-25.6v-25.6h-128c-42.342 0-76.8-34.458-76.8-76.8v-614.4c0-42.342 34.458-76.8 76.8-76.8h332.8v51.2h-332.8c-14.080 0-25.6 11.469-25.6 25.6zM51.2 822.857c0 14.080 11.52 25.6 25.6 25.6h128v-76.8c0-14.080 11.52-25.6 25.6-25.6s25.6 11.52 25.6 25.6v76.8h256v-76.8c0-14.080 11.469-25.6 25.6-25.6s25.6 11.52 25.6 25.6v76.8h128c14.131 0 25.6-11.52 25.6-25.6v-128h-665.6v128zM384 541.257c14.080 0 25.6-11.52 25.6-25.6s-11.52-25.6-25.6-25.6h-51.2c-14.080 0-25.6 11.52-25.6 25.6s11.52 25.6 25.6 25.6h51.2zM742.4 490.057c-155.546 0-281.6-126.054-281.6-281.6s126.054-281.6 281.6-281.6 281.6 126.054 281.6 281.6-126.054 281.6-281.6 281.6zM742.4-21.943c-127.232 0-230.4 103.168-230.4 230.4s103.168 230.4 230.4 230.4 230.4-103.168 230.4-230.4-103.168-230.4-230.4-230.4zM384 438.857c14.080 0 25.6-11.469 25.6-25.6s-11.52-25.6-25.6-25.6h-51.2c-14.080 0-25.6 11.469-25.6 25.6s11.52 25.6 25.6 25.6h51.2zM384 336.457c14.080 0 25.6-11.469 25.6-25.6s-11.52-25.6-25.6-25.6h-51.2c-14.080 0-25.6 11.469-25.6 25.6s11.52 25.6 25.6 25.6h51.2zM844.8 234.057c14.131 0 25.6-11.469 25.6-25.6s-11.469-25.6-25.6-25.6h-102.4c-14.131 0-25.6 11.469-25.6 25.6v102.4c0 14.131 11.469 25.6 25.6 25.6s25.6-11.469 25.6-25.6v-76.8h76.8z" />
<glyph unicode="&#xe938;" glyph-name="control-Markdown" d="M793.6 341.441h-61.838v28.108h-0.783q-21.135-33.092-62.034-33.092-37.573 0-60.469 26.912-22.896 27.112-22.896 75.554 0 50.635 25.244 81.136t66.144 30.501q38.747 0 54.011-28.308h0.783v121.405h61.838v-302.216zM732.936 440.718v15.35q0 19.935-11.35 33.092t-29.549 13.157q-20.548 0-32.093-16.546-11.546-16.347-11.546-45.053 0-26.912 11.154-41.465t30.919-14.553q18.786 0 30.528 15.35 11.937 15.35 11.937 40.668zM548.594 341.441h-61.643v116.421q0 44.455-32.093 44.455-15.264 0-24.853-13.357t-9.589-33.292v-114.228h-61.839v117.617q0 43.259-31.506 43.259-15.851 0-25.44-12.758-9.393-12.758-9.393-34.687v-113.431h-61.838v204.135h61.838v-31.896h0.783q9.589 16.347 26.81 26.514 17.417 10.366 37.964 10.366 42.465 0 58.12-38.076 22.896 38.076 67.318 38.076 65.361 0 65.361-82.133v-126.987zM0 950.857v-204.8h76.8v-76.8h51.2v76.8h76.8v204.8zM819.2 950.857v-204.8h204.8v204.8zM51.2 899.657h102.4v-102.4h-102.4zM870.4 899.657h102.4v-102.4h-102.4zM281.6 874.057v-51.2h102.4v51.2zM486.4 874.057v-51.2h102.4v51.2zM691.2 874.057v-51.2h102.4v51.2zM896 669.257v-102.4h51.2v102.4zM76.8 566.857v-102.4h51.2v102.4zM896 464.457v-102.4h51.2v102.4zM76.8 362.057v-102.4h51.2v102.4zM896 259.657v-102.4h51.2v102.4zM76.8 157.257v-25.6h-76.8v-204.8h204.8v76.8h76.8v51.2h-76.8v76.8h-76.8v25.6zM819.2 131.657v-76.8h-25.6v-51.2h25.6v-76.8h204.8v204.8zM51.2 80.457h102.4v-102.4h-102.4zM870.4 80.457h102.4v-102.4h-102.4zM384 54.857v-51.2h102.4v51.2zM588.8 54.857v-51.2h102.4v51.2z" />
<glyph unicode="&#xe939;" glyph-name="control-RichText" d="M918 554.667v-128h-128v-298h-128v298h-128v128h384zM106 768.667h556v-128h-214v-512h-128v512h-214v128z" />
<glyph unicode="&#xe93a;" glyph-name="control-Stars" d="M1020.192 558.176c-8.864 25.568-31.616 44.288-59.008 48.352l-266.432 39.616-115.808 240.448c-12.192 25.248-38.272 41.408-66.944 41.408s-54.752-16.16-66.944-41.408l-115.808-240.448-266.464-39.616c-27.36-4.064-50.112-22.784-58.944-48.352-8.8-25.632-2.144-53.856 17.184-73.12l195.264-194.944-45.28-270.432c-4.608-27.232 7.2-54.56 30.336-70.496 12.704-8.736 27.648-13.184 42.592-13.184 12.288 0 24.608 3.008 35.776 8.992l232.288 125.056 232.32-125.056c11.168-5.984 23.488-8.992 35.744-8.992 14.944 0 29.888 4.448 42.624 13.184 23.136 15.936 34.88 43.264 30.304 70.496l-45.312 270.432 195.328 194.944c19.296 19.296 25.92 47.52 17.184 73.12zM754.816 340.384c-16.384-16.32-23.808-39.328-20.064-61.888l45.312-270.432-232.32 124.992c-11.136 6.016-23.424 8.992-35.776 8.992-12.288 0-24.608-3.008-35.744-8.992l-232.32-124.992 45.312 270.432c3.776 22.56-3.648 45.568-20.032 61.888l-195.264 194.944 266.432 39.68c24.352 3.616 45.312 18.848 55.776 40.576l115.872 240.384 115.84-240.416c10.496-21.728 31.424-36.928 55.744-40.576l266.496-39.68-195.264-194.912z" />
<glyph unicode="&#xe93b;" glyph-name="google" d="M522.2 521.2v-175.6h290.4c-11.8-75.4-87.8-220.8-290.4-220.8-174.8 0-317.4 144.8-317.4 323.2s142.6 323.2 317.4 323.2c99.4 0 166-42.4 204-79l139 133.8c-89.2 83.6-204.8 134-343 134-283 0-512-229-512-512s229-512 512-512c295.4 0 491.6 207.8 491.6 500.2 0 33.6-3.6 59.2-8 84.8l-483.6 0.2z" />
<glyph unicode="&#xe93c;" glyph-name="info" d="M636.518 972.8c68.608 0 102.912-46.694 102.912-100.198 0-66.816-59.597-128.614-137.165-128.614-64.973 0-102.861 38.4-101.069 101.888 0 53.402 45.107 126.925 135.322 126.925zM425.421-51.2c-54.17 0-93.85 33.382-55.962 180.429l62.157 260.71c10.803 41.677 12.595 58.419 0 58.419-16.23 0-86.477-28.774-128.102-57.19l-27.034 45.056c131.686 111.923 283.187 177.51 348.211 177.51 54.118 0 63.13-65.178 36.096-165.376l-71.219-274.022c-12.595-48.384-7.219-65.075 5.427-65.075 16.23 0 69.478 20.070 121.805 61.798l30.72-41.677c-128.102-130.406-268.032-180.582-322.099-180.582z" />
<glyph unicode="&#xe93d;" glyph-name="bug" horiz-adv-x="951" d="M932.571 402.286c0-20-16.571-36.571-36.571-36.571h-128c0-71.429-15.429-125.143-38.286-165.714l118.857-119.429c14.286-14.286 14.286-37.143 0-51.429-6.857-7.429-16.571-10.857-25.714-10.857s-18.857 3.429-25.714 10.857l-113.143 112.571s-74.857-68.571-172-68.571v512h-73.143v-512c-103.429 0-178.857 75.429-178.857 75.429l-104.571-118.286c-7.429-8-17.143-12-27.429-12-8.571 0-17.143 2.857-24.571 9.143-14.857 13.714-16 36.571-2.857 52l115.429 129.714c-20 39.429-33.143 90.286-33.143 156.571h-128c-20 0-36.571 16.571-36.571 36.571s16.571 36.571 36.571 36.571h128v168l-98.857 98.857c-14.286 14.286-14.286 37.143 0 51.429s37.143 14.286 51.429 0l98.857-98.857h482.286l98.857 98.857c14.286 14.286 37.143 14.286 51.429 0s14.286-37.143 0-51.429l-98.857-98.857v-168h128c20 0 36.571-16.571 36.571-36.571zM658.286 731.428h-365.714c0 101.143 81.714 182.857 182.857 182.857s182.857-81.714 182.857-182.857z" />
<glyph unicode="&#xe93e;" glyph-name="download" d="M640 853.334q78 0 149.167-30.5t122.5-81.833 81.833-122.5 30.5-149.167q0-85-35-160.667t-96.667-129.167-140-77.5l21 20.667q18 18.333 28 42.667 9.333 22.667 9.333 49.333 0 6.667-0.333 9.333 59.333 41.333 93.833 105.833t34.5 139.5q0 60.667-23.667 116t-63.667 95.333-95.333 63.667-116 23.667q-55.333 0-106.5-19.833t-90-53.833-65-81.333-33.833-101h-88.667q-70.667 0-120.667-50t-50-120.667q0-38.667 15.167-71.667t39.833-54.167 54.833-33 60.833-11.833h50q11.667-29.333 30-48l37.667-37.333h-117.667q-69.667 0-128.5 34.333t-93.167 93.167-34.333 128.5 34.333 128.5 93.167 93.167 128.5 34.333h22q26.333 74.333 79.333 132.167t126.833 90.833 155.833 33zM554.667 512q17.667 0 30.167-12.5t12.5-30.167v-281l55 55.333q12.333 12.333 30.333 12.333 18.333 0 30.5-12.167t12.167-30.5q0-18-12.333-30.333l-128-128q-12.333-12.333-30.333-12.333t-30.333 12.333l-128 128q-12.333 13-12.333 30.333 0 17.667 12.5 30.167t30.167 12.5q18 0 30.333-12.333l55-55.333v281q0 17.667 12.5 30.167t30.167 12.5z" />
<glyph unicode="&#xe93f;" glyph-name="document-unpublish" d="M358.4 848.457c-28.314 0-51.2-22.886-51.2-51.2v-153.6h51.2v153.6h307.2v-153.6c0-28.314 22.886-51.2 51.2-51.2h153.6v-512h-358.4v-51.2h358.4c28.314 0 51.2 22.886 51.2 51.2v548.2l-219.8 219.8h-292.2zM716.8 761.057l117.4-117.4h-117.4zM332.8 490.057l-230.4-256v-51.2h102.4v-153.6h256v153.6h102.4v51.2zM332.8 413.557l161.5-179.5h-84.7v-153.6h-153.6v153.6h-84.7zM102.4 593.325h460.8v-52.068h-460.8v52.068z" />
<glyph unicode="&#xe940;" glyph-name="microsoft" d="M0.35 448l-0.35 312.074 384 52.144v-364.218zM448 821.518l511.872 74.482v-448h-511.872zM959.998 384l-0.126-448-511.872 72.016v375.984zM384 16.164l-383.688 52.594-0.020 315.242h383.708z" />
<glyph unicode="&#xe941;" glyph-name="github" d="M512 938.667c-282.88 0-512-229.248-512-512 0-226.24 146.688-418.112 350.080-485.76 25.6-4.8 35.008 11.008 35.008 24.64 0 12.16-0.448 44.352-0.64 87.040-142.464-30.912-172.48 68.672-172.48 68.672-23.296 59.136-56.96 74.88-56.96 74.88-46.4 31.744 3.584 31.104 3.584 31.104 51.392-3.584 78.4-52.736 78.4-52.736 45.696-78.272 119.872-55.68 149.12-42.56 4.608 33.088 17.792 55.68 32.448 68.48-113.728 12.8-233.216 56.832-233.216 252.992 0 55.872 19.84 101.568 52.672 137.408-5.76 12.928-23.040 64.96 4.48 135.488 0 0 42.88 13.76 140.8-52.48 40.96 11.392 84.48 17.024 128 17.28 43.52-0.256 87.040-5.888 128-17.28 97.28 66.24 140.16 52.48 140.16 52.48 27.52-70.528 10.24-122.56 5.12-135.488 32.64-35.84 52.48-81.536 52.48-137.408 0-196.672-119.68-240-233.6-252.608 17.92-15.36 34.56-46.72 34.56-94.72 0-68.48-0.64-123.52-0.64-140.16 0-13.44 8.96-29.44 35.2-24.32 204.864 67.136 351.424 259.136 351.424 485.056 0 282.752-229.248 512-512 512z" />
<glyph unicode="&#xe942;" glyph-name="checkmark" d="M927.936 687.008l-68.288 68.288c-12.608 12.576-32.96 12.576-45.536 0l-409.44-409.44-194.752 196.16c-12.576 12.576-32.928 12.576-45.536 0l-68.288-68.288c-12.576-12.608-12.576-32.96 0-45.536l285.568-287.488c12.576-12.576 32.96-12.576 45.536 0l500.736 500.768c12.576 12.544 12.576 32.96 0 45.536z" />
<glyph unicode="&#xe943;" glyph-name="elapsed" d="M512.002 766.788v65.212h128v64c0 35.346-28.654 64-64.002 64h-191.998c-35.346 0-64-28.654-64-64v-64h128v-65.212c-214.798-16.338-384-195.802-384-414.788 0-229.75 186.25-416 416-416s416 186.25 416 416c0 218.984-169.202 398.448-384 414.788zM706.276 125.726c-60.442-60.44-140.798-93.726-226.274-93.726s-165.834 33.286-226.274 93.726c-60.44 60.44-93.726 140.8-93.726 226.274s33.286 165.834 93.726 226.274c58.040 58.038 134.448 91.018 216.114 93.548l-21.678-314.020c-1.86-26.29 12.464-37.802 31.836-37.802s33.698 11.512 31.836 37.802l-21.676 314.022c81.666-2.532 158.076-35.512 216.116-93.55 60.44-60.44 93.726-140.8 93.726-226.274s-33.286-165.834-93.726-226.274z" />
<glyph unicode="&#xe944;" glyph-name="timeout" d="M512 832c-247.424 0-448-200.576-448-448s200.576-448 448-448 448 200.576 448 448-200.576 448-448 448zM512 24c-198.824 0-360 161.178-360 360 0 198.824 161.176 360 360 360 198.822 0 360-161.176 360-360 0-198.822-161.178-360-360-360zM934.784 672.826c16.042 28.052 25.216 60.542 25.216 95.174 0 106.040-85.96 192-192 192-61.818 0-116.802-29.222-151.92-74.596 131.884-27.236 245.206-105.198 318.704-212.578v0zM407.92 885.404c-35.116 45.374-90.102 74.596-151.92 74.596-106.040 0-192-85.96-192-192 0-34.632 9.174-67.122 25.216-95.174 73.5 107.38 186.822 185.342 318.704 212.578zM512 384v256h-64v-320h256v64z" />
<glyph unicode="&#xe945;" glyph-name="api" d="M592 557.257h-156.8c-57.6 0-105.6 48-105.6 105.6v182.4c0 57.6 48 105.6 105.6 105.6h156.8c57.6 0 105.6-48 105.6-105.6v-182.4c-3.2-57.6-48-105.6-105.6-105.6zM432 886.857c-22.4 0-41.6-19.2-41.6-41.6v-182.4c0-22.4 19.2-41.6 41.6-41.6h156.8c22.4 0 41.6 19.2 41.6 41.6v182.4c0 22.4-19.2 41.6-41.6 41.6h-156.8zM195.2-73.143c-105.6 0-195.2 89.6-195.2 195.2 0 108.8 89.6 195.2 195.2 195.2s195.2-89.6 195.2-195.2c3.2-105.6-86.4-195.2-195.2-195.2zM195.2 256.457c-73.6 0-131.2-60.8-131.2-131.2 0-73.6 60.8-134.4 131.2-134.4 73.6 0 131.2 60.8 131.2 131.2 3.2 73.6-57.6 134.4-131.2 134.4zM828.8-73.143c-108.8 0-195.2 89.6-195.2 195.2 0 108.8 89.6 195.2 195.2 195.2s195.2-89.6 195.2-195.2c0-105.6-89.6-195.2-195.2-195.2zM828.8 256.457c-73.6 0-131.2-60.8-131.2-131.2 0-73.6 60.8-131.2 131.2-131.2 73.6 0 131.2 60.8 131.2 131.2s-60.8 131.2-131.2 131.2zM332.8 310.857c-6.4 0-12.8 0-16 3.2-16 9.6-19.2 28.8-9.6 44.8l83.2 137.6c9.6 16 28.8 19.2 44.8 9.6s19.2-28.8 9.6-44.8l-83.2-137.6c-6.4-6.4-16-12.8-28.8-12.8zM691.2 310.857c-9.6 0-22.4 6.4-28.8 16l-83.2 137.6c-9.6 16-3.2 35.2 9.6 44.8s35.2 3.2 44.8-9.6l83.2-137.6c9.6-16 3.2-35.2-9.6-44.8-6.4-6.4-12.8-6.4-16-6.4z" />
<glyph unicode="&#xe946;" glyph-name="contents, trigger-ContentChanged" d="M800-73.143h-576c-124.8 0-224 99.2-224 224v576c0 124.8 99.2 224 224 224h576c124.8 0 224-99.2 224-224v-576c0-124.8-99.2-224-224-224zM224 886.857c-89.6 0-160-70.4-160-160v-576c0-89.6 70.4-160 160-160h576c89.6 0 160 70.4 160 160v576c0 89.6-70.4 160-160 160h-576zM480 502.857h-211.2c-57.6 0-105.6 48-105.6 105.6v73.6c0 57.6 48 105.6 105.6 105.6h211.2c57.6 0 105.6-48 105.6-105.6v-73.6c0-57.6-48-105.6-105.6-105.6zM268.8 723.657c-22.4 0-41.6-19.2-41.6-41.6v-73.6c0-22.4 19.2-41.6 41.6-41.6h211.2c22.4 0 41.6 19.2 41.6 41.6v73.6c0 22.4-19.2 41.6-41.6 41.6h-211.2zM828.8 339.657h-633.6c-19.2 0-32 12.8-32 32s12.8 32 32 32h630.4c19.2 0 32-12.8 32-32s-12.8-32-28.8-32zM553.6 173.257h-358.4c-19.2 0-32 12.8-32 32s12.8 32 32 32h355.2c19.2 0 32-12.8 32-32s-12.8-32-28.8-32z" />
<glyph unicode="&#xe947;" glyph-name="rules, search-Rule" d="M217.6-41.143c-3.2 0-3.2 0-6.4 0h-3.2c-144 25.6-208 144-208 249.6 0 99.2 57.6 208 185.6 240v147.2c0 19.2 12.8 32 32 32s32-12.8 32-32v-172.8c0-16-12.8-28.8-25.6-32-108.8-16-160-102.4-160-182.4s48-166.4 153.6-185.6h6.4c16-3.2 28.8-19.2 25.6-38.4-3.2-16-16-25.6-32-25.6zM774.4-50.743c0 0 0 0 0 0-102.4 0-211.2 60.8-243.2 185.6h-176c-19.2 0-32 12.8-32 32s12.8 32 32 32h201.6c16 0 28.8-12.8 32-25.6 16-108.8 102.4-156.8 182.4-160 80 0 166.4 48 185.6 153.6v3.2c3.2 16 19.2 28.8 38.4 25.6 16-3.2 28.8-19.2 25.6-38.4v-3.2c-22.4-140.8-140.8-204.8-246.4-204.8zM787.2 272.457c-19.2 0-32 12.8-32 32v176c0 16 12.8 28.8 25.6 32 108.8 16 156.8 102.4 160 182.4 0 80-48 166.4-153.6 185.6h-3.2c-19.2 6.4-32 22.4-28.8 38.4s19.2 28.8 38.4 25.6h3.2c144-25.6 208-144 208-249.6 0-99.2-60.8-208-185.6-240v-150.4c0-16-16-32-32-32zM41.6 704.457c-3.2 0-3.2 0-6.4 0-16 3.2-28.8 19.2-25.6 35.2v3.2c25.6 144 140.8 208 246.4 208 0 0 3.2 0 3.2 0 99.2 0 208-60.8 240-185.6h147.2c19.2 0 32-12.8 32-32s-12.8-32-32-32h-172.8c-16 0-28.8 12.8-32 25.6-16 108.8-102.4 156.8-182.4 160-80 0-166.4-48-185.6-153.6v-3.2c-3.2-16-16-25.6-32-25.6zM256 563.657c-32 0-67.2 12.8-92.8 38.4-51.2 51.2-51.2 134.4 0 185.6 25.6 22.4 57.6 35.2 92.8 35.2s67.2-12.8 92.8-38.4c25.6-25.6 38.4-57.6 38.4-92.8s-12.8-67.2-38.4-92.8c-25.6-22.4-57.6-35.2-92.8-35.2zM256 758.857c-16 0-32-6.4-44.8-19.2-25.6-25.6-25.6-67.2 0-92.8s67.2-25.6 92.8 0c12.8 12.8 19.2 28.8 19.2 48s-6.4 32-19.2 44.8-28.8 19.2-48 19.2zM771.2 77.257c-32 0-67.2 12.8-92.8 38.4-51.2 51.2-51.2 134.4 0 185.6 25.6 25.6 57.6 38.4 92.8 38.4s67.2-12.8 92.8-38.4c25.6-25.6 38.4-57.6 38.4-92.8s-12.8-67.2-38.4-92.8c-28.8-25.6-60.8-38.4-92.8-38.4zM771.2 272.457c-19.2 0-35.2-6.4-48-19.2-25.6-25.6-25.6-67.2 0-92.8s67.2-25.6 92.8 0c12.8 12.8 19.2 28.8 19.2 48s-6.4 35.2-19.2 48-28.8 16-44.8 16zM745.6 563.657c-32 0-67.2 12.8-92.8 38.4s-38.4 57.6-38.4 92.8 12.8 67.2 38.4 92.8c25.6 22.4 60.8 35.2 92.8 35.2s67.2-12.8 92.8-38.4c51.2-51.2 51.2-134.4 0-185.6v0c-25.6-22.4-57.6-35.2-92.8-35.2zM745.6 758.857c-19.2 0-35.2-6.4-48-19.2s-19.2-28.8-19.2-48 6.4-35.2 19.2-48c25.6-25.6 67.2-25.6 92.8 0s25.6 67.2 0 92.8c-9.6 16-25.6 22.4-44.8 22.4zM259.2 77.257c-32 0-67.2 12.8-92.8 38.4s-38.4 57.6-38.4 92.8 12.8 67.2 38.4 92.8c25.6 22.4 57.6 35.2 92.8 35.2s67.2-12.8 92.8-38.4c51.2-51.2 51.2-134.4 0-185.6v0c-25.6-22.4-57.6-35.2-92.8-35.2zM259.2 272.457c-19.2 0-35.2-6.4-48-19.2s-19.2-28.8-19.2-48 6.4-35.2 19.2-48c25.6-25.6 67.2-25.6 92.8 0s25.6 67.2 0 92.8c-9.6 16-25.6 22.4-44.8 22.4z" />
<glyph unicode="&#xe948;" glyph-name="assets, search-Asset" d="M800-73.143h-576c-124.8 0-224 99.2-224 224v576c0 124.8 99.2 224 224 224h576c124.8 0 224-99.2 224-224v-576c0-124.8-99.2-224-224-224zM224 886.857c-89.6 0-160-70.4-160-160v-576c0-89.6 70.4-160 160-160h576c89.6 0 160 70.4 160 160v576c0 89.6-70.4 160-160 160h-576zM771.2 90.057h-438.4c-12.8 0-22.4 6.4-28.8 19.2s-3.2 25.6 3.2 35.2l300.8 355.2c6.4 6.4 16 12.8 25.6 12.8s19.2-6.4 25.6-12.8l192-275.2c3.2-3.2 3.2-6.4 3.2-9.6 16-44.8 3.2-73.6-6.4-89.6-22.4-32-70.4-35.2-76.8-35.2zM403.2 154.057h371.2c6.4 0 22.4 3.2 25.6 9.6 3.2 3.2 3.2 12.8 0 25.6l-166.4 236.8-230.4-272zM332.8 448.457c-76.8 0-140.8 64-140.8 140.8s64 140.8 140.8 140.8 140.8-64 140.8-140.8-60.8-140.8-140.8-140.8zM332.8 666.057c-41.6 0-76.8-32-76.8-76.8s35.2-76.8 76.8-76.8 76.8 35.2 76.8 76.8-32 76.8-76.8 76.8z" />
<glyph unicode="&#xe949;" glyph-name="document-lock" d="M358.4 848.457c-28.314 0-51.2-22.886-51.2-51.2v-204.8h51.2v204.8h307.2v-153.6c0-28.314 22.886-51.2 51.2-51.2h153.6v-512h-307.2v-51.2h307.2c28.314 0 51.2 22.886 51.2 51.2v548.2l-219.8 219.8h-292.2zM716.8 761.057l117.4-117.4h-117.4zM153.6 310.857v-281.6h358.4v281.6zM179.2 310.857v76.8c0 84.48 69.12 153.6 153.6 153.6s153.6-69.12 153.6-153.6v-76.8h-51.2v76.8c0 56.32-46.080 102.4-102.4 102.4s-102.4-46.080-102.4-102.4v-76.8z" />
<glyph unicode="&#xe94a;" glyph-name="type-Tags" d="M295.954 115.916h-94.705c-47.353 0-88.786 41.434-88.786 88.786v491.283c0 47.353 41.434 88.786 88.786 88.786h94.705v59.191h-94.705c-82.867 0-147.977-65.11-147.977-147.977v-491.283c0-82.867 65.11-147.977 147.977-147.977h94.705v59.191zM970.728 465.141c-82.867 171.653-201.249 378.821-272.277 378.821h-112.462v-59.191h112.462c35.514-11.838 136.139-177.572 213.087-337.387-76.948-153.896-177.572-325.549-213.087-337.387h-112.462v-59.191h112.462c71.029 0 183.491 207.168 272.277 384.74l5.919 11.838-5.919 17.757zM266.358 601.326v-260.462h59.191v260.462zM479.422 601.326v-260.462h59.191v260.462z" />
<glyph unicode="&#xe94b;" glyph-name="orleans" d="M512 924.477l-424.96-242.8v-485.64l424.96-242.8 424.96 242.8v485.64l-424.96 242.8zM512 715.337l245.76-138.24v-276.48l-245.76-138.24-245.76 138.24v276.48l245.76 138.24z" />
<glyph unicode="&#xe94c;" glyph-name="prerender" d="M66.337 363.176l276.668 171.531v57.177l-331.627-207.614v-42.189l331.627-207.614v57.177zM957.663 363.177l-276.668 171.531v57.177l331.627-207.614v-42.189l-331.627-207.614v57.177zM583.295 724.484l-200.825-621.623 53.007-17.527 200.837 621.623z" />
<glyph unicode="&#xe94d;" glyph-name="control-Color" d="M832 544h-320v-64h-64v96h384v192h-32v-96c0-17.664-14.336-32-32-32h-576c-17.696 0-32 14.336-32 32v128c0 17.696 14.304 32 32 32h576c17.664 0 32-14.304 32-32h64v-256h-32zM736 800h-512v-32h512v32zM544 128c0-35.328-28.672-64-64-64s-64 28.672-64 64v320h128v-320zM480 173.344c-17.696 0-32-14.336-32-32 0-17.696 14.304-32 32-32 17.664 0 32 14.304 32 32 0 17.664-14.336 32-32 32z" />
<glyph unicode="&#xe94e;" glyph-name="list" d="M737.28 512h-296.96c-28.262 0-30.72-22.886-30.72-51.2s2.458-51.2 30.72-51.2h296.96c28.262 0 30.72 22.886 30.72 51.2s-2.458 51.2-30.72 51.2zM839.68 256h-399.36c-28.262 0-30.72-22.886-30.72-51.2s2.458-51.2 30.72-51.2h399.36c28.262 0 30.72 22.886 30.72 51.2s-2.458 51.2-30.72 51.2zM440.32 665.6h399.36c28.262 0 30.72 22.886 30.72 51.2s-2.458 51.2-30.72 51.2h-399.36c-28.262 0-30.72-22.886-30.72-51.2s2.458-51.2 30.72-51.2zM276.48 512h-92.16c-28.262 0-30.72-22.886-30.72-51.2s2.458-51.2 30.72-51.2h92.16c28.262 0 30.72 22.886 30.72 51.2s-2.458 51.2-30.72 51.2zM276.48 256h-92.16c-28.262 0-30.72-22.886-30.72-51.2s2.458-51.2 30.72-51.2h92.16c28.262 0 30.72 22.886 30.72 51.2s-2.458 51.2-30.72 51.2zM276.48 768h-92.16c-28.262 0-30.72-22.886-30.72-51.2s2.458-51.2 30.72-51.2h92.16c28.262 0 30.72 22.886 30.72 51.2s-2.458 51.2-30.72 51.2z" />
<glyph unicode="&#xe94f;" glyph-name="control-Slug" d="M512 938.667c-15.36 0-25.6-10.24-25.6-25.6s10.24-25.6 25.6-25.6h128v-870.4h-128c-15.36 0-25.6-10.24-25.6-25.6s10.24-25.6 25.6-25.6h307.2c15.36 0 25.6 10.24 25.6 25.6s-10.24 25.6-25.6 25.6h-128v870.4h128c15.36 0 25.6 10.24 25.6 25.6s-10.24 25.6-25.6 25.6h-307.2zM51.2 733.867c-28.16 0-51.2-23.040-51.2-51.2v-460.8c0-28.16 23.040-51.2 51.2-51.2h537.6v51.2h-512c-15.36 0-25.6 10.24-25.6 25.6v409.6c0 15.36 10.24 25.6 25.6 25.6h512v51.2h-537.6zM742.4 733.867v-51.2h204.8c15.36 0 25.6-10.24 25.6-25.6v-409.6c0-15.36-10.24-25.6-25.6-25.6h-204.8v-51.2h230.4c28.16 0 51.2 23.040 51.2 51.2v460.8c0 28.16-23.040 51.2-51.2 51.2h-230.4zM386.56 331.947c0-12.8-7.68-23.040-20.48-25.6-28.16-10.24-58.88-15.36-92.16-15.36-35.84 0-66.56 10.24-84.48 25.6s-25.6 38.4-25.6 66.56 10.24 51.2 25.6 66.56c17.92 17.92 46.080 23.040 84.48 23.040h69.12v38.4c0 35.84-25.6 53.76-64 53.76-23.040 0-46.080-7.68-69.12-20.48-2.56-2.56-5.12-2.56-10.24-2.56-10.24 0-20.48 7.68-20.48 20.48 0 7.68 2.56 12.8 10.24 17.92 30.72 20.48 61.44 25.6 92.16 25.6 56.32 0 104.96-30.72 104.96-92.16v-181.76zM345.6 436.907h-69.12c-61.44 0-69.12-28.16-69.12-53.76s7.68-56.32 69.12-56.32c23.040 0 46.080 2.56 69.12 10.24v99.84z" />
<glyph unicode="&#xe950;" glyph-name="clock" d="M658.744 210.744l-210.744 210.746v282.51h128v-229.49l173.256-173.254zM512 960c-282.77 0-512-229.23-512-512s229.23-512 512-512 512 229.23 512 512-229.23 512-512 512zM512 64c-212.078 0-384 171.922-384 384s171.922 384 384 384c212.078 0 384-171.922 384-384s-171.922-384-384-384z" />
<glyph unicode="&#xe951;" glyph-name="circle" d="M1024 426.667c0-282.77-229.23-512-512-512s-512 229.23-512 512c0 282.77 229.23 512 512 512s512-229.23 512-512z" />
<glyph unicode="&#xe952;" glyph-name="grid1" d="M409.6 768h-153.6c-28.314 0-51.2-22.886-51.2-51.2v-153.6c0-28.262 22.886-51.2 51.2-51.2h153.6c28.314 0 51.2 22.938 51.2 51.2v153.6c0 28.262-22.886 51.2-51.2 51.2zM768 768h-153.6c-28.314 0-51.2-22.886-51.2-51.2v-153.6c0-28.262 22.886-51.2 51.2-51.2h153.6c28.314 0 51.2 22.938 51.2 51.2v153.6c0 28.262-22.886 51.2-51.2 51.2zM409.6 409.6h-153.6c-28.314 0-51.2-22.886-51.2-51.2v-153.6c0-28.262 22.886-51.2 51.2-51.2h153.6c28.314 0 51.2 22.938 51.2 51.2v153.6c0 28.262-22.886 51.2-51.2 51.2zM768 409.6h-153.6c-28.314 0-51.2-22.886-51.2-51.2v-153.6c0-28.262 22.886-51.2 51.2-51.2h153.6c28.314 0 51.2 22.938 51.2 51.2v153.6c0 28.262-22.886 51.2-51.2 51.2z" />
<glyph unicode="&#xe953;" glyph-name="spinner" d="M192 448c0 12.18 0.704 24.196 2.030 36.022l-184.98 60.104c-5.916-31.14-9.050-63.264-9.050-96.126 0-147.23 62.166-279.922 161.654-373.324l114.284 157.296c-52.124 56.926-83.938 132.758-83.938 216.028zM832 448c0-83.268-31.812-159.102-83.938-216.028l114.284-157.296c99.488 93.402 161.654 226.094 161.654 373.324 0 32.862-3.132 64.986-9.048 96.126l-184.98-60.104c1.324-11.828 2.028-23.842 2.028-36.022zM576 761.592c91.934-18.662 169.544-76.742 214.45-155.826l184.978 60.102c-73.196 155.42-222.24 268.060-399.428 290.156v-194.432zM233.55 605.768c44.906 79.084 122.516 137.164 214.45 155.826v194.43c-177.188-22.096-326.23-134.736-399.426-290.154l184.976-60.102zM644.556 156.672c-40.39-18.408-85.272-28.672-132.556-28.672s-92.166 10.264-132.554 28.67l-114.292-157.31c73.206-40.366 157.336-63.36 246.846-63.36s173.64 22.994 246.848 63.36l-114.292 157.312z" />
<glyph unicode="&#xe954;" glyph-name="hour-glass" d="M728.992 448c137.754 87.334 231.008 255.208 231.008 448 0 21.676-1.192 43.034-3.478 64h-889.042c-2.29-20.968-3.48-42.326-3.48-64 0-192.792 93.254-360.666 231.006-448-137.752-87.334-231.006-255.208-231.006-448 0-21.676 1.19-43.034 3.478-64h889.042c2.288 20.966 3.478 42.324 3.478 64 0.002 192.792-93.252 360.666-231.006 448zM160 0c0 186.912 80.162 345.414 224 397.708v100.586c-143.838 52.29-224 210.792-224 397.706v0h704c0-186.914-80.162-345.416-224-397.706v-100.586c143.838-52.294 224-210.796 224-397.708h-704zM619.626 290.406c-71.654 40.644-75.608 93.368-75.626 125.366v64.228c0 31.994 3.804 84.914 75.744 125.664 38.504 22.364 71.808 56.348 97.048 98.336h-409.582c25.266-42.032 58.612-76.042 97.166-98.406 71.654-40.644 75.606-93.366 75.626-125.366v-64.228c0-31.992-3.804-84.914-75.744-125.664-72.622-42.18-126.738-125.684-143.090-226.336h501.67c-16.364 100.708-70.53 184.248-143.212 226.406z" />
<glyph unicode="&#xe955;" glyph-name="exclamation" horiz-adv-x="366" d="M292.571 237.714v-128c0-20-16.571-36.571-36.571-36.571h-146.286c-20 0-36.571 16.571-36.571 36.571v128c0 20 16.571 36.571 36.571 36.571h146.286c20 0 36.571-16.571 36.571-36.571zM309.714 841.143l-16-438.857c-0.571-20-17.714-36.571-37.714-36.571h-146.286c-20 0-37.143 16.571-37.714 36.571l-16 438.857c-0.571 20 15.429 36.571 35.429 36.571h182.857c20 0 36-16.571 35.429-36.571z" />
<glyph unicode="&#xe956;" glyph-name="type-Array" d="M832 682.057h-657.92c-15.36 0-25.6 10.24-25.6 25.6s10.24 25.6 25.6 25.6h657.92c15.36 0 25.6-10.24 25.6-25.6s-10.24-25.6-25.6-25.6zM832 497.737h-409.6c-15.36 0-25.6 10.24-25.6 25.6s10.24 25.6 25.6 25.6h409.6c15.36 0 25.6-10.24 25.6-25.6s-10.24-25.6-25.6-25.6zM832 308.297h-409.6c-15.36 0-25.6 10.24-25.6 25.6s10.24 25.6 25.6 25.6h409.6c15.36 0 25.6-10.24 25.6-25.6s-10.24-25.6-25.6-25.6zM832 118.857h-409.6c-15.36 0-25.6 10.24-25.6 25.6s10.24 25.6 25.6 25.6h409.6c15.36 0 25.6-10.24 25.6-25.6s-10.24-25.6-25.6-25.6z" />
<glyph unicode="&#xe957;" glyph-name="multiple-content" horiz-adv-x="1029" d="M777.143 4.571h-525.714c-89.143 0-160 70.857-160 160v297.143c0 89.143 70.857 160 160 160h525.714c89.143 0 160-70.857 160-160v-297.143c0-89.143-70.857-160-160-160zM251.429 576c-64 0-114.286-50.286-114.286-114.286v-297.143c0-64 50.286-114.286 114.286-114.286h525.714c64 0 114.286 50.286 114.286 114.286v297.143c0 64-50.286 114.286-114.286 114.286h-525.714zM731.429 370.286h-457.143c-13.714 0-22.857 9.143-22.857 22.857s9.143 22.857 22.857 22.857h457.143c13.714 0 22.857-9.143 22.857-22.857s-9.143-22.857-22.857-22.857zM502.857 210.286h-228.571c-13.714 0-22.857 9.143-22.857 22.857s9.143 22.857 22.857 22.857h228.571c13.714 0 22.857-9.143 22.857-22.857s-9.143-22.857-22.857-22.857zM777.143 690.286h-525.714c-13.714 0-22.857 9.143-22.857 22.857s9.143 22.857 22.857 22.857h525.714c13.714 0 22.857-9.143 22.857-22.857s-9.143-22.857-22.857-22.857zM685.714 804.571h-342.857c-13.714 0-22.857 9.143-22.857 22.857s9.143 22.857 22.857 22.857h342.857c13.714 0 22.857-9.143 22.857-22.857s-9.143-22.857-22.857-22.857z" />
<glyph unicode="&#xe958;" glyph-name="single-content, search-Content" horiz-adv-x="1029" d="M251.429 850.277c-87.896 0-160-72.104-160-160v-525.714c0-87.896 72.104-160 160-160h525.714c87.896 0 160 72.104 160 160v525.714c0 87.896-72.104 160-160 160zM251.429 804.562h525.714c62.961 0 114.286-51.325 114.286-114.286v-525.714c0-62.961-51.325-114.286-114.286-114.286h-525.714c-62.961 0-114.286 51.325-114.286 114.286v525.714c0 62.961 51.325 114.286 114.286 114.286zM251.429 644.562c-0.096 0.001-0.21 0.002-0.323 0.002-12.625 0-22.859-10.235-22.859-22.859s10.235-22.859 22.859-22.859c0.114 0 0.227 0.001 0.34 0.002h525.697c0.096-0.001 0.21-0.002 0.323-0.002 12.625 0 22.859 10.235 22.859 22.859s-10.235 22.859-22.859 22.859c-0.114 0-0.227-0.001-0.34-0.002h0.017zM251.429 507.419c-0.096 0.001-0.21 0.002-0.323 0.002-12.625 0-22.859-10.235-22.859-22.859s10.235-22.859 22.859-22.859c0.114 0 0.227 0.001 0.34 0.002h297.126c0.096-0.001 0.21-0.002 0.323-0.002 12.625 0 22.859 10.235 22.859 22.859s-10.235 22.859-22.859 22.859c-0.114 0-0.227-0.001-0.34-0.002h0.017zM251.429 370.277c-0.096 0.001-0.21 0.002-0.323 0.002-12.625 0-22.859-10.235-22.859-22.859s10.235-22.859 22.859-22.859c0.114 0 0.227 0.001 0.34 0.002h297.126c0.096-0.001 0.21-0.002 0.323-0.002 12.625 0 22.859 10.235 22.859 22.859s-10.235 22.859-22.859 22.859c-0.114 0-0.227-0.001-0.34-0.002h0.017z" />
<glyph unicode="&#xe959;" glyph-name="spinner2" d="M512-64c-136.76 0-265.334 53.258-362.040 149.96-96.702 96.706-149.96 225.28-149.96 362.040 0 96.838 27.182 191.134 78.606 272.692 50 79.296 120.664 143.372 204.356 185.3l43-85.832c-68.038-34.084-125.492-86.186-166.15-150.67-41.746-66.208-63.812-142.798-63.812-221.49 0-229.382 186.618-416 416-416s416 186.618 416 416c0 78.692-22.066 155.282-63.81 221.49-40.66 64.484-98.114 116.584-166.15 150.67l43 85.832c83.692-41.928 154.358-106.004 204.356-185.3 51.422-81.558 78.604-175.854 78.604-272.692 0-136.76-53.258-265.334-149.96-362.040-96.706-96.702-225.28-149.96-362.040-149.96z" />
<glyph unicode="&#xe95a;" glyph-name="support" d="M726 426.667c0-24-20-42-44-42h-426l-170-172v598c0 24 18 42 42 42h554c24 0 44-18 44-42v-384zM896 682.667c24 0 42-18 42-42v-640l-170 170h-470c-24 0-42 18-42 42v86h554v384h86z" />
<glyph unicode="&#xe95b;" glyph-name="backup" d="M512 810.667c212 0 384-172 384-384s-172-384-384-384c-88 0-170 30-234 80l60 60c50-34 110-54 174-54 166 0 298 132 298 298s-132 298-298 298-298-132-298-298h128l-172-170-170 170h128c0 212 172 384 384 384zM598 426.667c0-46-40-86-86-86s-86 40-86 86 40 86 86 86 86-40 86-86z" />
<glyph unicode="&#xe95c;" glyph-name="twitter" d="M1024 733.6c-37.6-16.8-78.2-28-120.6-33 43.4 26 76.6 67.2 92.4 116.2-40.6-24-85.6-41.6-133.4-51-38.4 40.8-93 66.2-153.4 66.2-116 0-210-94-210-210 0-16.4 1.8-32.4 5.4-47.8-174.6 8.8-329.4 92.4-433 219.6-18-31-28.4-67.2-28.4-105.6 0-72.8 37-137.2 93.4-174.8-34.4 1-66.8 10.6-95.2 26.2 0-0.8 0-1.8 0-2.6 0-101.8 72.4-186.8 168.6-206-17.6-4.8-36.2-7.4-55.4-7.4-13.6 0-26.6 1.4-39.6 3.8 26.8-83.4 104.4-144.2 196.2-146-72-56.4-162.4-90-261-90-17 0-33.6 1-50.2 3 93.2-59.8 203.6-94.4 322.2-94.4 386.4 0 597.8 320.2 597.8 597.8 0 9.2-0.2 18.2-0.6 27.2 41 29.4 76.6 66.4 104.8 108.6z" />
<glyph unicode="&#xe95d;" glyph-name="star-full" d="M1024 562.95l-353.78 51.408-158.22 320.582-158.216-320.582-353.784-51.408 256-249.538-60.432-352.352 316.432 166.358 316.432-166.358-60.434 352.352 256.002 249.538z" />
<glyph unicode="&#xe95e;" glyph-name="star-empty" d="M1024 562.95l-353.78 51.408-158.22 320.582-158.216-320.582-353.784-51.408 256-249.538-60.432-352.352 316.432 166.358 316.432-166.358-60.434 352.352 256.002 249.538zM512 206.502l-223.462-117.48 42.676 248.83-180.786 176.222 249.84 36.304 111.732 226.396 111.736-226.396 249.836-36.304-180.788-176.222 42.678-248.83-223.462 117.48z" />
<glyph unicode="&#xe95f;" glyph-name="comments" d="M854 256.667v512h-684v-598l86 86h598zM854 852.667c46 0 84-38 84-84v-512c0-46-38-86-84-86h-598l-170-170v768c0 46 38 84 84 84h684z" />
<glyph unicode="&#xe960;" glyph-name="control-Html" d="M159.073 285.257l-159.073 134.055 159.073 133.819 36.818-37.29-117.062-96.057 117.062-97.237zM493.247 414.828q0-33.042-9.441-57.115-9.205-24.073-25.961-40.122-16.521-15.813-39.178-23.601-22.657-7.552-49.327-7.552-26.197 0-48.855 4.012-22.421 3.776-42.954 10.385v323.338h57.587v-78.356l-2.36-47.203q12.981 16.757 30.21 26.905 17.465 10.149 41.774 10.149 21.241 0 37.762-8.496t27.614-24.309q11.329-15.577 17.229-37.998 5.9-22.185 5.9-50.035zM432.828 412.468q0 19.825-2.832 33.75t-8.26 22.893q-5.192 8.969-12.981 12.981-7.552 4.248-17.465 4.248-14.633 0-28.086-11.801-13.217-11.801-28.086-32.098v-104.79q6.844-2.596 16.757-4.248 10.149-1.652 20.533-1.652 13.689 0 24.781 5.664 11.329 5.664 19.117 16.049 8.024 10.385 12.273 25.253 4.248 15.105 4.248 33.75zM700.682 437.249q0.472 13.453-1.416 22.893-1.652 9.441-5.664 15.577-3.776 6.136-9.441 8.968t-12.981 2.832q-12.745 0-26.433-10.621-13.453-10.385-29.738-34.458v-151.756h-59.003v239.789h52.159l2.124-34.93q5.9 9.205 13.217 16.521 7.552 7.316 16.521 12.509 9.205 5.428 20.297 8.26t24.309 2.832q18.173 0 32.098-6.372 14.161-6.136 23.601-18.409 9.677-12.273 14.161-30.918 4.72-18.409 4.012-42.718zM864.927 553.132l159.073-133.819-159.073-134.055-36.582 37.29 116.826 96.293-116.826 97.001z" />
<glyph unicode="&#xe961;" glyph-name="drag2" d="M170 298.667v86h684v-86h-684zM854 554.667v-86h-684v86h684z" />
<glyph unicode="&#xe962;" glyph-name="control-Checkboxes" d="M384 771.657h614.4c14.157 0 25.6 11.443 25.6 25.6s-11.443 25.6-25.6 25.6h-614.4c-14.131 0-25.6-11.443-25.6-25.6s11.469-25.6 25.6-25.6zM998.4 464.457h-614.4c-14.131 0-25.6-11.443-25.6-25.6s11.469-25.6 25.6-25.6h614.4c14.157 0 25.6 11.443 25.6 25.6s-11.443 25.6-25.6 25.6zM998.4 106.057h-614.4c-38.406-15.539-22.811-37.543 0-51.2h614.4c14.157 0 25.6 11.443 25.6 25.6s-11.443 25.6-25.6 25.6zM0 950.857v-307.2h307.2v307.2zM47.4 903.457h212.4v-212.4h-212.4zM0 234.057v-307.2h307.2v307.2zM47.4 186.657h212.4v-212.4h-212.4zM0 592.457v-307.2h307.2v307.2zM47.4 545.057h212.4v-212.4h-212.4zM89.6 861.257h128v-128h-128v128z" />
<glyph unicode="&#xe963;" glyph-name="control-Tags" horiz-adv-x="1140" d="M498.787 620.534v49.548h112.31v66.065c0 49.548-39.639 89.187-89.187 89.187s-89.187-39.639-89.187-89.187v-541.729l89.187-161.858 89.187 161.858v426.116zM360.052 234.057h-66.065c-59.458 0-105.703 46.245-105.703 105.703v254.348c0 59.458 46.245 105.703 105.703 105.703h66.065v42.942h-66.065c-82.581 0-148.645-66.065-148.645-148.645v-254.348c0-82.581 66.065-148.645 148.645-148.645h66.065zM852.232 689.902c-26.426 33.032-66.065 52.852-109.006 52.852h-59.458v-42.942h39.639c42.942 0 82.581-19.819 109.006-52.852l145.342-181.677-142.039-178.374c-26.426-33.032-69.368-52.852-112.31-52.852h-36.335v-42.942h56.155c42.942 0 85.884 19.819 112.31 52.852l178.374 221.316z" />
<glyph unicode="&#xe964;" glyph-name="show" d="M256 857.6c-28.314 0-51.2-22.886-51.2-51.2v-256h51.2v256h307.2v-153.6c0-28.314 22.886-51.2 51.2-51.2h153.6v-512h-512v460.8h-51.2v-460.8c0-28.314 22.886-51.2 51.2-51.2h512c28.314 0 51.2 22.886 51.2 51.2v548.2l-219.8 219.8h-292.2zM614.4 770.2l117.4-117.4h-117.4zM408.906 372.28l-35.3 37 138.1 131.9 138-131.9-35.3-37-102.7 98.1zM511.706 186.88l-138.1 131.9 35.3 37 102.8-98.1 102.7 98.1 35.3-37z" />
<glyph unicode="&#xe965;" glyph-name="show-all" d="M256 857.6c-28.314 0-51.2-22.886-51.2-51.2v-256h51.2v256h307.2v-153.6c0-28.314 22.886-51.2 51.2-51.2h153.6v-512h-512v460.8h-51.2v-460.8c0-28.314 22.886-51.2 51.2-51.2h512c28.314 0 51.2 22.886 51.2 51.2v548.2l-219.8 219.8h-292.2zM614.4 770.2l117.4-117.4h-117.4zM348.394 944.012c-28.314 0-51.2-22.886-51.2-51.2v-23.7h51.2v23.7h307.2l204.8-204.8v-512h-23.8v-51.2h23.8c28.314 0 51.2 22.886 51.2 51.2v548.2l-219.8 219.8h-292.2zM408.906 372.28l-35.3 37 138.1 131.9 138-131.9-35.3-37-102.7 98.1zM511.706 186.88l-138.1 131.9 35.3 37 102.8-98.1 102.7 98.1 35.3-37z" />
<glyph unicode="&#xe966;" glyph-name="hide" d="M256 857.6c-28.314 0-51.2-22.886-51.2-51.2v-256h51.2v256h307.2v-153.6c0-28.314 22.886-51.2 51.2-51.2h153.6v-512h-512v460.8h-51.2v-460.8c0-28.314 22.886-51.2 51.2-51.2h512c28.314 0 51.2 22.886 51.2 51.2v548.2l-219.8 219.8h-292.2zM614.4 770.2l117.4-117.4h-117.4zM408.9 541.2l-35.3-37 138-131.9 138.1 131.9-35.3 37-102.8-98.1zM511.6 355.8l-138-131.9 35.3-37 102.7 98.1 102.8-98.1 35.3 37z" />
<glyph unicode="&#xe967;" glyph-name="hide-all" d="M408.9 541.2l-35.3-37 138.1-131.9 138 131.9-35.3 37-102.7-98.1zM511.7 355.8l-138.1-131.9 35.3-37 102.8 98.1 102.7-98.1 35.3 37zM256 857.6c-28.314 0-51.2-22.886-51.2-51.2v-256h51.2v256h307.2v-153.6c0-28.314 22.886-51.2 51.2-51.2h153.6v-512h-512v460.8h-51.2v-460.8c0-28.314 22.886-51.2 51.2-51.2h512c28.314 0 51.2 22.886 51.2 51.2v548.2l-219.8 219.8h-292.2zM614.4 770.2l117.4-117.4h-117.4zM348.394 944.012c-28.314 0-51.2-22.886-51.2-51.2v-23.7h51.2v23.7h307.2l204.8-204.8v-512h-23.8v-51.2h23.8c28.314 0 51.2 22.886 51.2 51.2v548.2l-219.8 219.8h-292.2z" />
<glyph unicode="&#xe968;" glyph-name="plus-square" d="M810.667 853.334h-597.333c-72.533 0-128-55.467-128-128v-597.333c0-72.533 55.467-128 128-128h597.333c72.533 0 128 55.467 128 128v597.333c0 72.533-55.467 128-128 128zM853.333 128c0-25.6-17.067-42.667-42.667-42.667h-597.333c-25.6 0-42.667 17.067-42.667 42.667v597.333c0 25.6 17.067 42.667 42.667 42.667h597.333c25.6 0 42.667-17.067 42.667-42.667v-597.333zM682.667 469.334h-128v128c0 25.6-17.067 42.667-42.667 42.667s-42.667-17.067-42.667-42.667v-128h-128c-25.6 0-42.667-17.067-42.667-42.667s17.067-42.667 42.667-42.667h128v-128c0-25.6 17.067-42.667 42.667-42.667s42.667 17.067 42.667 42.667v128h128c25.6 0 42.667 17.067 42.667 42.667s-17.067 42.667-42.667 42.667z" />
<glyph unicode="&#xe969;" glyph-name="minus-square" d="M810.667 853.334h-597.333c-72.533 0-128-55.467-128-128v-597.333c0-72.533 55.467-128 128-128h597.333c72.533 0 128 55.467 128 128v597.333c0 72.533-55.467 128-128 128zM853.333 128c0-25.6-17.067-42.667-42.667-42.667h-597.333c-25.6 0-42.667 17.067-42.667 42.667v597.333c0 25.6 17.067 42.667 42.667 42.667h597.333c25.6 0 42.667-17.067 42.667-42.667v-597.333zM682.667 469.334h-341.333c-25.6 0-42.667-17.067-42.667-42.667s17.067-42.667 42.667-42.667h341.333c25.6 0 42.667 17.067 42.667 42.667s-17.067 42.667-42.667 42.667z" />
<glyph unicode="&#xe96a;" glyph-name="clone" d="M950.857 18.286v621.714c0 9.714-8.571 18.286-18.286 18.286h-621.714c-9.714 0-18.286-8.571-18.286-18.286v-621.714c0-9.714 8.571-18.286 18.286-18.286h621.714c9.714 0 18.286 8.571 18.286 18.286zM1024 640v-621.714c0-50.286-41.143-91.429-91.429-91.429h-621.714c-50.286 0-91.429 41.143-91.429 91.429v621.714c0 50.286 41.143 91.429 91.429 91.429h621.714c50.286 0 91.429-41.143 91.429-91.429zM804.571 859.428v-91.429h-73.143v91.429c0 9.714-8.571 18.286-18.286 18.286h-621.714c-9.714 0-18.286-8.571-18.286-18.286v-621.714c0-9.714 8.571-18.286 18.286-18.286h91.429v-73.143h-91.429c-50.286 0-91.429 41.143-91.429 91.429v621.714c0 50.286 41.143 91.429 91.429 91.429h621.714c50.286 0 91.429-41.143 91.429-91.429z" />
<glyph unicode="&#xe96b;" glyph-name="caret-bottom" horiz-adv-x="585" d="M585.143 411.443c0-9.728-3.986-18.871-10.862-25.71l-256-256c-6.839-6.839-16.018-10.862-25.71-10.862s-18.871 3.986-25.71 10.862l-256 256c-6.839 6.839-10.862 16.018-10.862 25.71 0 20.005 16.567 36.571 36.571 36.571h512c20.005 0 36.571-16.567 36.571-36.571zM585.143 740.557c0-9.728-3.986-18.871-10.862-25.71l-256-256c-6.839-6.839-16.018-10.862-25.71-10.862s-18.871 3.986-25.71 10.862l-256 256c-6.839 6.839-10.862 16.018-10.862 25.71 0 20.005 16.567 36.571 36.571 36.571h512c20.005 0 36.571-16.567 36.571-36.571z" />
<glyph unicode="&#xe96c;" glyph-name="caret-top" horiz-adv-x="585" d="M585.143 155.423c0-20.005-16.567-36.571-36.571-36.571h-512c-20.005 0-36.571 16.567-36.571 36.571 0 9.728 3.986 18.871 10.862 25.71l256 256c6.839 6.839 16.018 10.862 25.71 10.862s18.871-3.986 25.71-10.862l256-256c6.839-6.839 10.862-16.018 10.862-25.71zM585.143 484.577c0-20.005-16.567-36.571-36.571-36.571h-512c-20.005 0-36.571 16.567-36.571 36.571 0 9.728 3.986 18.871 10.862 25.71l256 256c6.839 6.839 16.018 10.862 25.71 10.862s18.871-3.986 25.71-10.862l256-256c6.839-6.839 10.862-16.018 10.862-25.71z" />
<glyph unicode="&#xe96d;" glyph-name="external-link" d="M768 426.667c-25.6 0-42.667-17.067-42.667-42.667v-256c0-25.6-17.067-42.667-42.667-42.667h-469.333c-25.6 0-42.667 17.067-42.667 42.667v469.333c0 25.6 17.067 42.667 42.667 42.667h256c25.6 0 42.667 17.067 42.667 42.667s-17.067 42.667-42.667 42.667h-256c-72.533 0-128-55.467-128-128v-469.333c0-72.533 55.467-128 128-128h469.333c72.533 0 128 55.467 128 128v256c0 25.6-17.067 42.667-42.667 42.667zM934.4 827.734c-4.267 8.533-12.8 17.067-21.333 21.333-4.267 4.267-12.8 4.267-17.067 4.267h-256c-25.6 0-42.667-17.067-42.667-42.667s17.067-42.667 42.667-42.667h153.6l-396.8-396.8c-17.067-17.067-17.067-42.667 0-59.733 8.533-8.533 17.067-12.8 29.867-12.8s21.333 4.267 29.867 12.8l396.8 396.8v-153.6c0-25.6 17.067-42.667 42.667-42.667s42.667 17.067 42.667 42.667v256c0 4.267 0 12.8-4.267 17.067z" />
<glyph unicode="&#xe96e;" glyph-name="arrow_back" d="M854 468.667v-84h-520l238-240-60-60-342 342 342 342 60-60-238-240h520z" />
<glyph unicode="&#xe96f;" glyph-name="translate" d="M678 212.667h138l-70 186zM790 512.667l192-512h-86l-48 128h-202l-48-128h-86l192 512h86zM550 296.667l-34-88-132 132-214-212-60 60 218 214c-54 60-96 124-128 194h86c26-50 58-98 98-142 62 68 108 146 136 228h-478v86h300v84h84v-84h300v-86h-126c-32-100-84-196-158-278l-2-2z" />
<glyph unicode="&#xe970;" glyph-name="upload" d="M448 384h128v256h192l-256 256-256-256h192zM640 528v-98.712l293.066-109.288-421.066-157.018-421.066 157.018 293.066 109.288v98.712l-384-144v-256l512-192 512 192v256z" />
<glyph unicode="&#xe971;" glyph-name="upload-4" d="M853.333 298.667v-170.667c0-5.845-1.152-11.349-3.2-16.299-2.133-5.205-5.333-9.899-9.301-13.867s-8.661-7.125-13.867-9.301c-4.949-2.048-10.453-3.2-16.299-3.2h-597.333c-5.845 0-11.349 1.152-16.299 3.2-5.205 2.133-9.899 5.333-13.867 9.301s-7.125 8.661-9.301 13.867c-2.048 4.949-3.2 10.453-3.2 16.299v170.667c0 23.552-19.115 42.667-42.667 42.667s-42.667-19.115-42.667-42.667v-170.667c0-17.28 3.456-33.835 9.728-48.981 6.485-15.701 16-29.781 27.776-41.557s25.856-21.291 41.557-27.776c15.104-6.229 31.659-9.685 48.939-9.685h597.333c17.28 0 33.835 3.456 48.981 9.728 15.701 6.485 29.781 16 41.557 27.776s21.291 25.856 27.776 41.557c6.229 15.104 9.685 31.659 9.685 48.939v170.667c0 23.552-19.115 42.667-42.667 42.667s-42.667-19.115-42.667-42.667zM469.333 707.67v-409.003c0-23.552 19.115-42.667 42.667-42.667s42.667 19.115 42.667 42.667v409.003l140.501-140.501c16.683-16.683 43.691-16.683 60.331 0s16.683 43.691 0 60.331l-213.333 213.333c-0.043 0.043-0.128 0.085-0.171 0.171-4.053 4.011-8.704 7.040-13.653 9.088-10.453 4.309-22.229 4.309-32.683 0-4.949-2.048-9.6-5.077-13.653-9.088-0.043-0.043-0.128-0.085-0.171-0.171l-213.333-213.333c-16.683-16.683-16.683-43.691 0-60.331s43.691-16.683 60.331 0z" />
<glyph unicode="&#xe972;" glyph-name="upload-2" d="M214 170.667h596v-86h-596v86zM384 256.667v256h-170l298 298 298-298h-170v-256h-256z" />
<glyph unicode="&#xe973;" glyph-name="upload-3" d="M469.333 323.67v-281.003c0-23.552 19.115-42.667 42.667-42.667s42.667 19.115 42.667 42.667v281.003l97.835-97.835c16.683-16.683 43.691-16.683 60.331 0s16.683 43.691 0 60.331l-170.667 170.667c-0.085 0.085-0.171 0.171-0.256 0.256-4.053 3.968-8.661 6.955-13.568 9.003-5.12 2.133-10.624 3.2-16.085 3.243-0.171 0-0.341 0-0.469 0-5.461-0.043-10.965-1.109-16.085-3.243-4.949-2.048-9.557-5.035-13.568-9.003-0.085-0.085-0.171-0.171-0.256-0.256l-170.667-170.667c-16.683-16.683-16.683-43.691 0-60.331s43.691-16.683 60.331 0zM890.411 116.566c30.379 16.555 56.149 38.443 76.672 63.915 21.333 26.411 36.949 56.619 46.379 88.576s12.629 65.835 9.003 99.584c-3.456 32.512-13.269 64.896-29.824 95.232-14.208 26.069-32.384 48.768-53.376 67.669-21.717 19.541-46.421 34.944-72.875 45.952-30.891 12.8-64.171 19.584-98.048 19.84h-22.528c-13.312 37.717-32.085 72.235-55.168 102.912-30.635 40.661-68.821 74.453-111.915 99.84s-91.179 42.411-141.568 49.536c-48.597 6.784-99.243 4.395-149.504-8.619s-95.744-35.413-134.912-64.939c-40.661-30.635-74.453-68.821-99.84-111.915s-42.411-91.179-49.493-141.568c-6.827-48.555-4.395-99.2 8.576-149.461 15.872-61.312 45.781-115.627 84.267-158.421 15.744-17.536 42.752-18.944 60.245-3.2s18.944 42.752 3.2 60.245c-29.355 32.64-52.693 74.667-65.109 122.752-10.155 39.253-11.989 78.592-6.699 116.224 5.504 39.125 18.773 76.501 38.571 110.123s46.080 63.317 77.653 87.083c30.379 22.869 65.664 40.32 104.917 50.475s78.592 11.989 116.224 6.699c39.125-5.504 76.544-18.731 110.123-38.528s63.317-46.080 87.083-77.653c22.869-30.379 40.32-65.664 50.475-104.917 4.907-18.56 21.547-32 41.301-32h53.461c22.869-0.171 45.269-4.736 65.92-13.312 17.707-7.339 34.133-17.621 48.512-30.592 13.909-12.501 25.984-27.605 35.541-45.099 11.093-20.352 17.579-41.899 19.883-63.488 2.389-22.443 0.256-45.013-6.016-66.432s-16.725-41.515-30.933-59.093c-13.611-16.896-30.763-31.445-51.115-42.581-20.693-11.264-28.331-37.205-17.024-57.899s37.205-28.331 57.899-17.024z" />
<glyph unicode="&#xe974;" glyph-name="info-outline" d="M470 554.667v86h84v-86h-84zM512 84.667c188 0 342 154 342 342s-154 342-342 342-342-154-342-342 154-342 342-342zM512 852.667c236 0 426-190 426-426s-190-426-426-426-426 190-426 426 190 426 426 426zM470 212.667v256h84v-256h-84z" />
<glyph unicode="&#xe975;" glyph-name="type-UI" d="M512 256h-341.333c-5.845 0-11.349 1.152-16.299 3.2-5.205 2.133-9.899 5.333-13.867 9.301s-7.125 8.661-9.301 13.867c-2.048 4.949-3.2 10.453-3.2 16.299v426.667c0 5.845 1.152 11.349 3.2 16.299 2.133 5.205 5.333 9.899 9.301 13.867s8.661 7.125 13.867 9.301c4.949 2.048 10.453 3.2 16.299 3.2h682.667c5.845 0 11.349-1.152 16.299-3.2 5.205-2.133 9.899-5.333 13.867-9.301s7.125-8.661 9.301-13.867c2.048-4.949 3.2-10.453 3.2-16.299v-426.667c0-5.845-1.152-11.349-3.2-16.299-2.133-5.205-5.333-9.899-9.301-13.867s-8.661-7.125-13.867-9.301c-4.949-2.048-10.453-3.2-16.299-3.2zM469.333 170.667v-85.333h-128c-23.552 0-42.667-19.115-42.667-42.667s19.115-42.667 42.667-42.667h341.333c23.552 0 42.667 19.115 42.667 42.667s-19.115 42.667-42.667 42.667h-128v85.333h298.667c17.28 0 33.835 3.456 48.981 9.728 15.701 6.485 29.781 16 41.557 27.776s21.291 25.856 27.776 41.557c6.229 15.104 9.685 31.659 9.685 48.939v426.667c0 17.28-3.456 33.835-9.728 48.981-6.485 15.701-16 29.781-27.776 41.557s-25.856 21.291-41.557 27.776c-15.104 6.229-31.659 9.685-48.939 9.685h-682.667c-17.28 0-33.835-3.456-48.981-9.728-15.659-6.485-29.739-16-41.515-27.776s-21.291-25.856-27.776-41.515c-6.272-15.147-9.728-31.701-9.728-48.981v-426.667c0-17.28 3.456-33.835 9.728-48.981 6.485-15.701 16-29.781 27.776-41.557s25.856-21.291 41.557-27.776c15.104-6.229 31.659-9.685 48.939-9.685z" />
<glyph unicode="&#xe976;" glyph-name="arrow-right" d="M621.254 82.746l320 320c24.994 24.992 24.994 65.516 0 90.51l-320 320c-24.994 24.992-65.516 24.992-90.51 0-24.994-24.994-24.994-65.516 0-90.51l210.746-210.746h-613.49c-35.346 0-64-28.654-64-64s28.654-64 64-64h613.49l-210.746-210.746c-12.496-12.496-18.744-28.876-18.744-45.254s6.248-32.758 18.744-45.254c24.994-24.994 65.516-24.994 90.51 0z" />
<glyph unicode="&#xe977;" glyph-name="corner-down-right" d="M128 768v-298.667c0-58.88 23.936-112.299 62.464-150.869s91.989-62.464 150.869-62.464h409.003l-140.501-140.501c-16.683-16.683-16.683-43.691 0-60.331s43.691-16.683 60.331 0l213.333 213.333c3.925 3.925 7.083 8.619 9.259 13.824s3.243 10.795 3.243 16.341c0 10.923-4.181 21.845-12.501 30.165l-213.333 213.333c-16.683 16.683-43.691 16.683-60.331 0s-16.683-43.691 0-60.331l140.501-140.501h-409.003c-35.371 0-67.285 14.293-90.496 37.504s-37.504 55.125-37.504 90.496v298.667c0 23.552-19.115 42.667-42.667 42.667s-42.667-19.115-42.667-42.667z" />
<glyph unicode="&#xe978;" glyph-name="filter-filled" horiz-adv-x="805" d="M801.714 782.286c5.714-13.714 2.857-29.714-8-40l-281.714-281.714v-424c0-14.857-9.143-28-22.286-33.714-4.571-1.714-9.714-2.857-14.286-2.857-9.714 0-18.857 3.429-25.714 10.857l-146.286 146.286c-6.857 6.857-10.857 16-10.857 25.714v277.714l-281.714 281.714c-10.857 10.286-13.714 26.286-8 40 5.714 13.143 18.857 22.286 33.714 22.286h731.429c14.857 0 28-9.143 33.714-22.286z" />
<glyph unicode="&#xe979;" glyph-name="trigger-Manual, play-line" d="M236.416 846.55c-6.528 4.267-14.507 6.784-23.083 6.784-23.552 0-42.667-19.115-42.667-42.667v-768c-0.043-7.765 2.133-15.872 6.784-23.083 12.757-19.84 39.125-25.557 58.965-12.8l597.333 384c4.864 3.072 9.344 7.424 12.8 12.8 12.757 19.84 6.997 46.208-12.8 58.965zM256 732.502l475.776-305.835-475.776-305.835z" />
<glyph unicode="&#xe97a;" glyph-name="help2" d="M512 682.667q70 0 120-50t50-120q0-54-64-111t-64-103h-84q0 46 20 79t44 48 44 37 20 50q0 34-26 59t-60 25-60-25-26-59h-84q0 70 50 120t120 50zM512 84.667q140 0 241 101t101 241-101 241-241 101-241-101-101-241 101-241 241-101zM512 852.667q176 0 301-125t125-301-125-301-301-125-301 125-125 301 125 301 301 125zM470 170.667v86h84v-86h-84z" />
<glyph unicode="&#xe97b;" glyph-name="create_new_folder" d="M810 340.667v86h-128v128h-84v-128h-128v-86h128v-128h84v128h128zM854 682.667q36 0 60-25t24-61v-426q0-36-24-61t-60-25h-684q-36 0-60 25t-24 61v512q0 36 24 61t60 25h256l86-86h342z" />
<glyph unicode="&#xe97c;" glyph-name="folder" d="M426 768.667l86-86h342q34 0 59-26t25-60v-426q0-34-25-60t-59-26h-684q-34 0-59 26t-25 60v512q0 34 25 60t59 26h256z" />
<glyph unicode="&#xe97d;" glyph-name="angle-double-right" horiz-adv-x="567" d="M340 402.286c0-4.571-2.286-9.714-5.714-13.143l-266.286-266.286c-3.429-3.429-8.571-5.714-13.143-5.714s-9.714 2.286-13.143 5.714l-28.571 28.571c-3.429 3.429-5.714 8.571-5.714 13.143s2.286 9.714 5.714 13.143l224.571 224.571-224.571 224.571c-3.429 3.429-5.714 8.571-5.714 13.143s2.286 9.714 5.714 13.143l28.571 28.571c3.429 3.429 8.571 5.714 13.143 5.714s9.714-2.286 13.143-5.714l266.286-266.286c3.429-3.429 5.714-8.571 5.714-13.143zM559.429 402.286c0-4.571-2.286-9.714-5.714-13.143l-266.286-266.286c-3.429-3.429-8.571-5.714-13.143-5.714s-9.714 2.286-13.143 5.714l-28.571 28.571c-3.429 3.429-5.714 8.571-5.714 13.143s2.286 9.714 5.714 13.143l224.571 224.571-224.571 224.571c-3.429 3.429-5.714 8.571-5.714 13.143s2.286 9.714 5.714 13.143l28.571 28.571c3.429 3.429 8.571 5.714 13.143 5.714s9.714-2.286 13.143-5.714l266.286-266.286c3.429-3.429 5.714-8.571 5.714-13.143z" />
<glyph unicode="&#xe97e;" glyph-name="angle-double-left" horiz-adv-x="603" d="M358.286 164.571c0-4.571-2.286-9.714-5.714-13.143l-28.571-28.571c-3.429-3.429-8.571-5.714-13.143-5.714s-9.714 2.286-13.143 5.714l-266.286 266.286c-3.429 3.429-5.714 8.571-5.714 13.143s2.286 9.714 5.714 13.143l266.286 266.286c3.429 3.429 8.571 5.714 13.143 5.714s9.714-2.286 13.143-5.714l28.571-28.571c3.429-3.429 5.714-8.571 5.714-13.143s-2.286-9.714-5.714-13.143l-224.571-224.571 224.571-224.571c3.429-3.429 5.714-8.571 5.714-13.143zM577.714 164.571c0-4.571-2.286-9.714-5.714-13.143l-28.571-28.571c-3.429-3.429-8.571-5.714-13.143-5.714s-9.714 2.286-13.143 5.714l-266.286 266.286c-3.429 3.429-5.714 8.571-5.714 13.143s2.286 9.714 5.714 13.143l266.286 266.286c3.429 3.429 8.571 5.714 13.143 5.714s9.714-2.286 13.143-5.714l28.571-28.571c3.429-3.429 5.714-8.571 5.714-13.143s-2.286-9.714-5.714-13.143l-224.571-224.571 224.571-224.571c3.429-3.429 5.714-8.571 5.714-13.143z" />
<glyph unicode="&#xe97f;" glyph-name="flip" d="M810 42.667v86h86q0-34-26-60t-60-26zM810 384.667v84h86v-84h-86zM640 724.667v86h86v-86h-86zM810 212.667v86h86v-86h-86zM470-43.333v940h84v-940h-84zM810 810.667q34 0 60-26t26-60h-86v86zM128 724.667q0 34 26 60t60 26h170v-86h-170v-596h170v-86h-170q-34 0-60 26t-26 60v596zM810 554.667v86h86v-86h-86zM640 42.667v86h86v-86h-86z" />
<glyph unicode="&#xe980;" glyph-name="rotate_right" d="M720 278.667q34 46 44 106h86q-12-92-68-166zM554 174.667q60 10 106 44l62-62q-72-56-168-68v86zM850 468.667h-86q-10 60-44 106l62 60q58-72 68-166zM664 702.667l-194-190v166q-92-16-153-87t-61-165 61-165 153-87v-86q-126 16-213 112t-87 226 87 226 213 112v132z" />
<glyph unicode="&#xe981;" glyph-name="rotate_left" d="M554 764.667q126-16 213-112t87-226-87-226-213-112v86q92 16 153 87t61 165-61 165-153 87v-166l-194 190 194 194v-132zM302 156.667l62 62q46-34 106-44v-86q-96 12-168 68zM260 384.667q10-58 42-106l-60-60q-56 74-68 166h86zM304 574.667q-36-52-44-106h-86q12 90 70 166z" />
<glyph unicode="&#xe982;" glyph-name="zoom_out" d="M298 554.667h214v-42h-214v42zM406 340.667q80 0 136 56t56 136-56 136-136 56-136-56-56-136 56-136 136-56zM662 340.667l212-212-64-64-212 212v34l-12 12q-76-66-180-66-116 0-197 80t-81 196 81 197 197 81 196-81 80-197q0-42-20-95t-46-85l12-12h34z" />
<glyph unicode="&#xe983;" glyph-name="zoom_in" d="M512 512.667h-86v-86h-42v86h-86v42h86v86h42v-86h86v-42zM406 340.667q80 0 136 56t56 136-56 136-136 56-136-56-56-136 56-136 136-56zM662 340.667l212-212-64-64-212 212v34l-12 12q-76-66-180-66-116 0-197 80t-81 196 81 197 197 81 196-81 80-197q0-42-20-95t-46-85l12-12h34z" />
<glyph unicode="&#xe9ca;" glyph-name="earth" d="M512 960c-282.77 0-512-229.23-512-512s229.23-512 512-512 512 229.23 512 512-229.23 512-512 512zM512-0.002c-62.958 0-122.872 13.012-177.23 36.452l233.148 262.29c5.206 5.858 8.082 13.422 8.082 21.26v96c0 17.674-14.326 32-32 32-112.99 0-232.204 117.462-233.374 118.626-6 6.002-14.14 9.374-22.626 9.374h-128c-17.672 0-32-14.328-32-32v-192c0-12.122 6.848-23.202 17.69-28.622l110.31-55.156v-187.886c-116.052 80.956-192 215.432-192 367.664 0 68.714 15.49 133.806 43.138 192h116.862c8.488 0 16.626 3.372 22.628 9.372l128 128c6 6.002 9.372 14.14 9.372 22.628v77.412c40.562 12.074 83.518 18.588 128 18.588 70.406 0 137.004-16.26 196.282-45.2-4.144-3.502-8.176-7.164-12.046-11.036-36.266-36.264-56.236-84.478-56.236-135.764s19.97-99.5 56.236-135.764c36.434-36.432 85.218-56.264 135.634-56.26 3.166 0 6.342 0.080 9.518 0.236 13.814-51.802 38.752-186.656-8.404-372.334-0.444-1.744-0.696-3.488-0.842-5.224-81.324-83.080-194.7-134.656-320.142-134.656z" />
</font>
</defs>
</svg>
